  0
SECTION
  2
HEADER
  9
$ACADVER
  1
AC1009
  9
$ANGBASE
 50
0.000000
  9
$ANGDIR
 70
     0
  9
$ATTDIA
 70
     0
  9
$ATTMODE
 70
     1
  9
$ATTREQ
 70
     1
  9
$AUNITS
 70
     0
  9
$AUPREC
 70
     0
  9
$AXISMODE
 70
     0
  9
$AXISUNIT
 10
0.000000
 20
0.000000
  9
$BLIPMODE
 70
     1
  9
$CECOLOR
 62
   256
  9
$CELTYPE
  6
BYLAYER
  9
$CHAMFERA
 40
0.000000
  9
$CHAMFERB
 40
0.000000
  9
$CLAYER
  8
0
  9
$COORDS
 70
     0
  9
$DIMALT
 70
     0
  9
$DIMALTD
 70
     2
  9
$DIMALTF
 40
25.400000
  9
$DIMAPOST
  1

  9
$DIMASO
 70
     1
  9
$DIMASZ
 40
0.153877
  9
$DIMBLK
  1

  9
$DIMBLK1
  1

  9
$DIMBLK2
  1

  9
$DIMCEN
 40
9.000000E-02
  9
$DIMDLE
 40
0.000000
  9
$DIMDLI
 40
0.380000
  9
$DIMEXE
 40
0.150000
  9
$DIMEXO
 40
0.100000
  9
$DIMLFAC
 40
1.000000
  9
$DIMLIM
 70
     0
  9
$DIMPOST
  1

  9
$DIMRND
 40
0.000000
  9
$DIMSCALE
 40
1.000000
  9
$DIMSE1
 70
     0
  9
$DIMSE2
 70
     0
  9
$DIMSHO
 70
     0
  9
$DIMTAD
 70
     0
  9
$DIMTIH
 70
     0
  9
$DIMTM
 40
0.000000
  9
$DIMTOH
 70
     1
  9
$DIMTOL
 70
     0
  9
$DIMTP
 40
0.000000
  9
$DIMTSZ
 40
0.000000
  9
$DIMTXT
 40
0.156000
  9
$DIMZIN
 70
     0
  9
$DRAGMODE
 70
     1
  9
$DWGCODEPAGE
  3
ansi_1252
  9
$ELEVATION
 40
0.000000
  9
$EXTMAX
 10
12.221934
 20
7.431528
 30
0.000000
  9
$EXTMIN
 10
-12.926996
 20
-21.038776
 30
0.000000
  9
$FASTZOOM
 70
     1
  9
$FILLETRAD
 40
6.250000E-02
  9
$FILLMODE
 70
     1
  9
$GRIDMODE
 70
     0
  9
$GRIDUNIT
 10
0.000000
 20
0.000000
  9
$INSBASE
 10
0.000000
 20
0.000000
 30
0.000000
  9
$LIMCHECK
 70
     0
  9
$LIMMAX
 10
12.221934
 20
7.431528
  9
$LIMMIN
 10
-12.926996
 20
-21.038776
  9
$LTSCALE
 40
1.000000
  9
$LUNITS
 70
     2
  9
$LUPREC
 70
     3
  9
$MEASUREMENT
 70
     0
  9
$MENU
  1
ACAD
  9
$MIRRTEXT
 70
     0
  9
$ORTHOMODE
 70
     0
  9
$OSMODE
 70
     0
  9
$PDMODE
 70
     0
  9
$PDSIZE
 40
0.000000
  9
$PLINEWID
 40
0.000000
  9
$PROXYGRAPHICS
 70
     0
  9
$QTEXTMODE
 70
     0
  9
$REGENMODE
 70
     1
  9
$SKETCHINC
 40
0.100000
  9
$SKPOLY
 70
     0
  9
$SNAPANG
 50
0.000000
  9
$SNAPBASE
 10
0.000000
 20
0.000000
  9
$SNAPISOPAIR
 70
     0
  9
$SNAPMODE
 70
     0
  9
$SNAPSTYLE
 70
     0
  9
$SNAPUNIT
 10
1.000000
 20
1.000000
  9
$SPLFRAME
 70
     0
  9
$SPLINESEGS
 70
     8
  9
$TDCREATE
 40
2452919.490023
  9
$TDINDWG
 40
0.000000
  9
$TDUPDATE
 40
2452919.490023
  9
$TDUSRTIMER
 40
0.000000
  9
$TEXTSIZE
 40
0.156000
  9
$TEXTSTYLE
  7
STANDARD
  9
$THICKNESS
 40
0.000000
  9
$TRACEWID
 40
5.000000E-02
  9
$USERI1
 70
     0
  9
$USERI2
 70
     0
  9
$USERI3
 70
     0
  9
$USERI4
 70
     0
  9
$USERI5
 70
     0
  9
$USERR1
 40
0.000000
  9
$USERR2
 40
0.000000
  9
$USERR3
 40
0.000000
  9
$USERR4
 40
0.000000
  9
$USERR5
 40
0.000000
  9
$USRTIMER
 70
     1
  9
$VIEWCTR
 10
-0.352531
 20
-6.803624
  9
$VIEWDIR
 10
0.000000
 20
0.000000
 30
1.000000
  9
$VIEWSIZE
 40
28.470305
  0
ENDSEC
  0
SECTION
  2
TABLES
  0
TABLE
  2
LTYPE
 70
     4
  0
LTYPE
  2
SOLID
  3
Solid
 70
    64
 72
    65
 73
     0
 40
0.000000
  0
LTYPE
  2
DASHED
  3
Dashed
 70
    64
 72
    65
 73
     2
 40
0.187500
 49
0.125000
 49
-6.250000E-02
  0
LTYPE
  2
CONSTRUCTION
  3
Construction
 70
    64
 72
    65
 73
     2
 40
4.000000E-02
 49
1.000000E-02
 49
-3.000000E-02
  0
LTYPE
  2
GAP
  3
Gap
 70
    64
 72
    65
 73
     3
 40
100.060000
 49
0.000000
 49
-6.000000E-02
 49
100.000000
  0
ENDTAB
  0
TABLE
  2
LAYER
 70
     1
  0
LAYER
  2
Layer0$C$L0
 70
     0
  6
SOLID
 62
     2
  0
ENDTAB
  0
TABLE
  2
STYLE
 70
     1
  0
STYLE
  2
STANDARD
  3
txt
  4

 40
0.000000
 41
1.000000
 42
0.125000
 50
0.000000
 70
     0
 71
     0
  0
ENDTAB
  0
TABLE
  2
DIMSTYLE
 70
     2
  0
DIMSTYLE
  2
STANDARD
 70
     0
  3

  4

  5

  6

  7

 40
1.000000
 41
0.180000
 42
0.000000
 43
0.380000
 44
0.000000
 45
0.000000
 46
0.000000
 47
0.000000
 48
0.000000
140
0.156000
141
9.000000E-02
142
0.000000
143
1.000000
144
1.000000
145
0.000000
146
1.000000
147
7.800000E-02
 71
     0
 72
     0
 73
     0
 74
     0
 75
     0
 76
     0
 77
     3
 78
     0
170
     0
171
     0
172
     0
173
     0
174
     0
175
     0
176
     0
177
     0
178
     0
270
     2
271
     2
272
     2
273
     2
274
     2
275
     1
280
     0
281
     0
282
     0
283
     1
284
     0
285
     0
286
     0
287
     3
288
     0
  0
DIMSTYLE
  2
DIM1
 70
     1
  3

  4

  5

  6

  7

 40
1.000000
 41
0.153877
 42
0.100000
 43
0.380000
 44
0.150000
 45
0.000000
 46
0.000000
 47
0.000000
 48
0.000000
140
0.125000
141
9.000000E-02
142
0.000000
143
1.000000
144
1.000000
145
0.000000
146
1.000000
147
6.250000E-02
 71
     0
 72
     0
 73
     1
 74
     1
 75
     0
 76
     0
 77
     0
 78
     0
170
     0
171
     0
172
     0
173
     0
174
     0
175
     0
176
     0
177
     0
178
     0
270
     2
271
     2
272
     2
273
     2
274
     0
275
     1
280
     0
281
     0
282
     0
283
     1
284
     0
285
     0
286
     0
287
     3
288
     0
  0
ENDTAB
  0
TABLE
  2
APPID
  5
1
100
AcDbSymbolTable
 70
     1
  0
APPID
  5
2
100
AcDbSymbolTableRecord
100
AcDbRegAppTableRecord
  2
ACAD
 70
     0
  0
ENDTAB
  0
ENDSEC
  0
SECTION
  2
BLOCKS
  0
BLOCK
  8
Layer0$C$L0
  2
*D0
 70
     1
 10
0.000000
 20
0.000000
  0
SOLID
  8
Layer0$C$L0
 10
-2.9325213869
 20
-0.2957777016
 11
-2.9933895628
 21
-0.2957777016
 12
-2.9629554749
 22
-0.4487801939
 13
-2.9629554749
 23
-0.4487801939
  0
LINE
  8
Layer0$C$L0
 10
-2.9629554749
 20
-0.4487801939
 11
-2.9629554749
 21
-0.2440344605
  0
SOLID
  8
Layer0$C$L0
 10
-2.9933895628
 20
-5.6306972564E-03
 11
-2.9325213869
 21
-5.6306972564E-03
 12
-2.9629554749
 22
0.1473717950
 13
-2.9629554749
 23
0.1473717950
  0
LINE
  8
Layer0$C$L0
 10
-2.9629554749
 20
0.1473717950
 11
-2.9629554749
 21
5.9655420482E-03
  0
LINE
  8
Layer0$C$L0
  6
GAP
 10
-4.7848440632
 20
-0.4487801939
 11
-2.8129554689
 21
-0.4487801939
  0
LINE
  8
Layer0$C$L0
  6
GAP
 10
-3.7297719941
 20
0.1473717950
 11
-2.8129554689
 21
0.1473717950
  0
TEXT
  8
Layer0$C$L0
 10
-3.3837431343
 20
-0.1815344605
 40
0.1250000026
  1
1/2 REF
 72
     5
 11
-2.5421678154
 21
-0.1815344605
  0
ENDBLK
  8
Layer0$C$L0
  0
BLOCK
  8
Layer0$C$L0
  2
*D1
 70
     1
 10
0.0000000000
 20
0.0000000000
  0
SOLID
  8
Layer0$C$L0
 10
-3.7470817648
 20
0.9679850777
 11
-3.7470817648
 21
1.0288532536
 12
-3.9000842571
 22
0.9984191656
 13
-3.9000842571
 23
0.9984191656
  0
LINE
  8
Layer0$C$L0
 10
-3.9000842571
 20
0.9984191656
 11
-3.1177471848
 21
0.9984191656
  0
SOLID
  8
Layer0$C$L0
 10
-1.5218372859
 20
1.0288532536
 11
-1.5218372859
 21
0.9679850777
 12
-1.3688347936
 22
0.9984191656
 13
-1.3688347936
 23
0.9984191656
  0
LINE
  8
Layer0$C$L0
 10
-1.3688347936
 20
0.9984191656
 11
-2.1511718659
 21
0.9984191656
  0
LINE
  8
Layer0$C$L0
  6
GAP
 10
-3.9000842571
 20
0.8512143269
 11
-3.9000842571
 21
1.1484191716
  0
LINE
  8
Layer0$C$L0
  6
GAP
 10
-1.3688347936
 20
0.8512143269
 11
-1.3688347936
 21
1.1484191716
  0
TEXT
  8
Layer0$C$L0
 10
-3.0552471848
 20
0.9359191643
 40
0.1250000026
  1
"B" REF
 72
     5
 11
-2.2136718659
 21
0.9359191643
  0
ENDBLK
  8
Layer0$C$L0
  0
BLOCK
  8
Layer0$C$L0
  2
*D2
 70
     1
 10
0.0000000000
 20
0.0000000000
  0
SOLID
  8
Layer0$C$L0
 10
-5.5415258844
 20
-0.9520277016
 11
-5.6023940603
 21
-0.9520277016
 12
-5.5719599724
 22
-1.1050301939
 13
-5.5719599724
 23
-1.1050301939
  0
LINE
  8
Layer0$C$L0
 10
-5.5719599724
 20
-1.1050301939
 11
-5.5719599724
 21
-0.2925330786
  0
SOLID
  8
Layer0$C$L0
 10
-5.6023940603
 20
0.6169615470
 11
-5.5415258844
 21
0.6169615470
 12
-5.5719599724
 22
0.7699640393
 13
-5.5719599724
 23
0.7699640393
  0
LINE
  8
Layer0$C$L0
 10
-5.5719599724
 20
0.7699640393
 11
-5.5719599724
 21
-4.2533076010E-02
  0
LINE
  8
Layer0$C$L0
  6
GAP
 10
-4.9848438874
 20
-1.1050301939
 11
-5.7219599783
 21
-1.1050301939
  0
LINE
  8
Layer0$C$L0
  6
GAP
 10
-4.1688345447
 20
0.7699640393
 11
-5.7219599783
 21
0.7699640393
  0
TEXT
  8
Layer0$C$L0
 10
-6.1802476319
 20
-0.2300330786
 40
0.1250000026
  1
"A" %%p .125
 72
     5
 11
-4.9636723129
 21
-0.2300330786
  0
ENDBLK
  8
Layer0$C$L0
  0
BLOCK
  8
Layer0$C$L0
  2
*X0
 70
     1
 10
0.0000000000
 20
0.0000000000
  0
LINE
  8
Layer0$C$L0
 10
3.931980
 20
-2.359652
 11
3.951780
 21
-2.339853
  0
LINE
  8
Layer0$C$L0
 10
3.951780
 20
-2.318640
 11
3.910766
 21
-2.359652
  0
LINE
  8
Layer0$C$L0
 10
3.889555
 20
-2.359652
 11
3.951780
 21
-2.297427
  0
LINE
  8
Layer0$C$L0
 10
3.951780
 20
-2.276213
 11
3.868341
 21
-2.359652
  0
LINE
  8
Layer0$C$L0
 10
3.847127
 20
-2.359652
 11
3.946979
 21
-2.259800
  0
LINE
  8
Layer0$C$L0
 10
3.925766
 20
-2.259800
 11
3.825914
 21
-2.359652
  0
LINE
  8
Layer0$C$L0
 10
3.804700
 20
-2.359652
 11
3.904552
 21
-2.259800
  0
LINE
  8
Layer0$C$L0
 10
3.883338
 20
-2.259800
 11
3.789566
 21
-2.353575
  0
LINE
  8
Layer0$C$L0
 10
3.789566
 20
-2.332361
 11
3.862125
 21
-2.259800
  0
LINE
  8
Layer0$C$L0
 10
3.840911
 20
-2.259800
 11
3.789566
 21
-2.311148
  0
LINE
  8
Layer0$C$L0
 10
3.789566
 20
-2.289935
 11
3.819700
 21
-2.259800
  0
LINE
  8
Layer0$C$L0
 10
3.798486
 20
-2.259800
 11
3.789566
 21
-2.268721
  0
ENDBLK
  8
Layer0$C$L0
  0
BLOCK
  8
Layer0$C$L0
  2
*X1
 70
     1
 10
0.000000
 20
0.000000
  0
LINE
  8
Layer0$C$L0
 10
4.002086
 20
-2.459252
 11
4.001379
 21
-2.459959
  0
LINE
  8
Layer0$C$L0
 10
4.102087
 20
-2.359252
 11
4.101379
 21
-2.359959
  0
LINE
  8
Layer0$C$L0
 10
4.002086
 20
-2.438039
 11
3.980165
 21
-2.459959
  0
LINE
  8
Layer0$C$L0
 10
4.102087
 20
-2.338038
 11
4.080165
 21
-2.359959
  0
LINE
  8
Layer0$C$L0
 10
4.002086
 20
-2.416825
 11
3.958951
 21
-2.459959
  0
LINE
  8
Layer0$C$L0
 10
4.102087
 20
-2.316826
 11
4.058952
 21
-2.359959
  0
LINE
  8
Layer0$C$L0
 10
4.002086
 20
-2.395612
 11
3.937740
 21
-2.459959
  0
LINE
  8
Layer0$C$L0
 10
4.102087
 20
-2.295612
 11
4.037738
 21
-2.359959
  0
LINE
  8
Layer0$C$L0
 10
4.002086
 20
-2.374399
 11
3.916526
 21
-2.459959
  0
LINE
  8
Layer0$C$L0
 10
4.102087
 20
-2.274399
 11
4.016527
 21
-2.359959
  0
LINE
  8
Layer0$C$L0
 10
4.095518
 20
-2.259754
 11
3.895313
 21
-2.459959
  0
LINE
  8
Layer0$C$L0
 10
4.074304
 20
-2.259754
 11
4.025653
 21
-2.308405
  0
LINE
  8
Layer0$C$L0
 10
4.053091
 20
-2.259754
 11
4.015508
 21
-2.297336
  0
LINE
  8
Layer0$C$L0
 10
4.031877
 20
-2.259754
 11
4.005363
 21
-2.286269
  0
LINE
  8
Layer0$C$L0
 10
4.010665
 20
-2.259754
 11
3.995218
 21
-2.275200
  0
LINE
  8
Layer0$C$L0
 10
4.002031
 20
-2.247175
 11
3.985073
 21
-2.264133
  0
LINE
  8
Layer0$C$L0
 10
4.002031
 20
-2.225962
 11
3.974927
 21
-2.253066
  0
LINE
  8
Layer0$C$L0
 10
4.002031
 20
-2.204749
 11
3.964782
 21
-2.241997
  0
LINE
  8
Layer0$C$L0
 10
4.002031
 20
-2.183535
 11
3.954635
 21
-2.230930
  0
LINE
  8
Layer0$C$L0
 10
4.002031
 20
-2.162323
 11
3.944490
 21
-2.219862
  0
LINE
  8
Layer0$C$L0
 10
3.983442
 20
-2.159699
 11
3.934345
 21
-2.208794
  0
LINE
  8
Layer0$C$L0
 10
3.962228
 20
-2.159699
 11
3.924200
 21
-2.197727
  0
LINE
  8
Layer0$C$L0
 10
3.941015
 20
-2.159699
 11
3.914054
 21
-2.186658
  0
LINE
  8
Layer0$C$L0
 10
3.919801
 20
-2.159699
 11
3.903909
 21
-2.175591
  0
LINE
  8
Layer0$C$L0
 10
3.898588
 20
-2.159699
 11
3.893764
 21
-2.164524
  0
ENDBLK
  8
Layer0$C$L0
  0
BLOCK
  8
Layer0$C$L0
  2
*X2
 70
     1
 10
0.000000
 20
0.000000
  0
LINE
  8
Layer0$C$L0
 10
5.178647
 20
-2.460298
 11
5.227725
 21
-2.411221
  0
LINE
  8
Layer0$C$L0
 10
5.169798
 20
-2.447933
 11
5.157355
 21
-2.460377
  0
LINE
  8
Layer0$C$L0
 10
5.227860
 20
-2.389871
 11
5.185416
 21
-2.432315
  0
LINE
  8
Layer0$C$L0
 10
5.146344
 20
-2.450175
 11
5.136141
 21
-2.460377
  0
LINE
  8
Layer0$C$L0
 10
5.227860
 20
-2.368657
 11
5.187657
 21
-2.408860
  0
LINE
  8
Layer0$C$L0
 10
5.125130
 20
-2.450175
 11
5.114928
 21
-2.460377
  0
LINE
  8
Layer0$C$L0
 10
5.227860
 20
-2.347445
 11
5.187657
 21
-2.387647
  0
LINE
  8
Layer0$C$L0
 10
5.103917
 20
-2.450175
 11
5.093714
 21
-2.460377
  0
LINE
  8
Layer0$C$L0
 10
5.227860
 20
-2.326231
 11
5.187657
 21
-2.366434
  0
LINE
  8
Layer0$C$L0
 10
5.089716
 20
-2.443162
 11
5.072501
 21
-2.460377
  0
LINE
  8
Layer0$C$L0
 10
5.227423
 20
-2.305456
 11
5.187657
 21
-2.345221
  0
LINE
  8
Layer0$C$L0
 10
5.089716
 20
-2.421949
 11
5.051287
 21
-2.460377
  0
LINE
  8
Layer0$C$L0
 10
5.222840
 20
-2.288826
 11
5.187657
 21
-2.324007
  0
LINE
  8
Layer0$C$L0
 10
5.089716
 20
-2.400736
 11
5.049866
 21
-2.440585
  0
LINE
  8
Layer0$C$L0
 10
5.214304
 20
-2.276146
 11
5.187657
 21
-2.302795
  0
LINE
  8
Layer0$C$L0
 10
5.089716
 20
-2.379523
 11
5.049866
 21
-2.419372
  0
LINE
  8
Layer0$C$L0
 10
5.202412
 20
-2.266827
 11
5.183829
 21
-2.285410
  0
LINE
  8
Layer0$C$L0
 10
5.089716
 20
-2.358310
 11
5.049866
 21
-2.398158
  0
LINE
  8
Layer0$C$L0
 10
5.186995
 20
-2.261029
 11
5.173373
 21
-2.274654
  0
LINE
  8
Layer0$C$L0
 10
5.089716
 20
-2.337096
 11
5.049866
 21
-2.376946
  0
LINE
  8
Layer0$C$L0
 10
5.166491
 20
-2.260322
 11
5.156441
 21
-2.270372
  0
LINE
  8
Layer0$C$L0
 10
5.089716
 20
-2.315883
 11
5.049866
 21
-2.355732
  0
LINE
  8
Layer0$C$L0
 10
5.145278
 20
-2.260322
 11
5.135228
 21
-2.270372
  0
LINE
  8
Layer0$C$L0
 10
5.089716
 20
-2.294670
 11
5.049866
 21
-2.334519
  0
LINE
  8
Layer0$C$L0
 10
5.124064
 20
-2.260322
 11
5.114014
 21
-2.270372
  0
LINE
  8
Layer0$C$L0
 10
5.089716
 20
-2.273457
 11
5.049866
 21
-2.313306
  0
LINE
  8
Layer0$C$L0
 10
5.102850
 20
-2.260322
 11
5.092801
 21
-2.270372
  0
LINE
  8
Layer0$C$L0
 10
5.081639
 20
-2.260322
 11
5.049866
 21
-2.292093
  0
LINE
  8
Layer0$C$L0
 10
5.060425
 20
-2.260322
 11
5.049866
 21
-2.270880
  0
ENDBLK
  8
Layer0$C$L0
  0
BLOCK
  8
Layer0$C$L0
  2
*X3
 70
     1
 10
0.000000
 20
0.000000
  0
LINE
  8
Layer0$C$L0
 10
4.992037
 20
-2.460231
 11
5.001986
 21
-2.450281
  0
LINE
  8
Layer0$C$L0
 10
4.980774
 20
-2.450281
 11
4.970824
 21
-2.460231
  0
LINE
  8
Layer0$C$L0
 10
4.949610
 20
-2.460231
 11
4.959561
 21
-2.450281
  0
LINE
  8
Layer0$C$L0
 10
4.938347
 20
-2.450281
 11
4.928397
 21
-2.460231
  0
LINE
  8
Layer0$C$L0
 10
4.907185
 20
-2.460231
 11
4.917134
 21
-2.450281
  0
LINE
  8
Layer0$C$L0
 10
4.895920
 20
-2.450281
 11
4.885972
 21
-2.460231
  0
LINE
  8
Layer0$C$L0
 10
4.864758
 20
-2.460231
 11
4.874707
 21
-2.450281
  0
LINE
  8
Layer0$C$L0
 10
4.871821
 20
-2.431954
 11
4.843544
 21
-2.460231
  0
LINE
  8
Layer0$C$L0
 10
4.831620
 20
-2.450943
 11
4.871821
 21
-2.410741
  0
LINE
  8
Layer0$C$L0
 10
4.871821
 20
-2.389528
 11
4.831620
 21
-2.429731
  0
LINE
  8
Layer0$C$L0
 10
4.831620
 20
-2.408517
 11
4.871821
 21
-2.368314
  0
LINE
  8
Layer0$C$L0
 10
4.871821
 20
-2.347101
 11
4.831620
 21
-2.387304
  0
LINE
  8
Layer0$C$L0
 10
4.831620
 20
-2.366091
 11
4.871821
 21
-2.325888
  0
LINE
  8
Layer0$C$L0
 10
4.871821
 20
-2.304674
 11
4.831620
 21
-2.344877
  0
LINE
  8
Layer0$C$L0
 10
4.831620
 20
-2.323664
 11
4.871821
 21
-2.283462
  0
LINE
  8
Layer0$C$L0
 10
4.871821
 20
-2.262248
 11
4.831620
 21
-2.302451
  0
LINE
  8
Layer0$C$L0
 10
4.831620
 20
-2.281238
 11
4.852623
 21
-2.260233
  0
ENDBLK
  8
Layer0$C$L0
  0
BLOCK
  8
Layer0$C$L0
  2
*X4
 70
     1
 10
0.000000
 20
0.000000
  0
LINE
  8
Layer0$C$L0
 10
4.752722
 20
-2.459129
 11
4.790612
 21
-2.421240
  0
LINE
  8
Layer0$C$L0
 10
4.791718
 20
-2.398921
 11
4.730404
 21
-2.460235
  0
LINE
  8
Layer0$C$L0
 10
4.719040
 20
-2.450385
 11
4.709191
 21
-2.460235
  0
LINE
  8
Layer0$C$L0
 10
4.791718
 20
-2.377708
 11
4.751868
 21
-2.417557
  0
LINE
  8
Layer0$C$L0
 10
4.697827
 20
-2.450385
 11
4.687977
 21
-2.460235
  0
LINE
  8
Layer0$C$L0
 10
4.791718
 20
-2.356494
 11
4.751868
 21
-2.396343
  0
LINE
  8
Layer0$C$L0
 10
4.677330
 20
-2.449669
 11
4.666764
 21
-2.460235
  0
LINE
  8
Layer0$C$L0
 10
4.791718
 20
-2.335282
 11
4.751868
 21
-2.375131
  0
LINE
  8
Layer0$C$L0
 10
4.663447
 20
-2.442340
 11
4.648133
 21
-2.457653
  0
LINE
  8
Layer0$C$L0
 10
4.791718
 20
-2.314068
 11
4.751868
 21
-2.353917
  0
LINE
  8
Layer0$C$L0
 10
4.655127
 20
-2.429446
 11
4.634057
 21
-2.450515
  0
LINE
  8
Layer0$C$L0
 10
4.791718
 20
-2.292855
 11
4.751868
 21
-2.332704
  0
LINE
  8
Layer0$C$L0
 10
4.653725
 20
-2.409635
 11
4.623446
 21
-2.439914
  0
LINE
  8
Layer0$C$L0
 10
4.791718
 20
-2.271642
 11
4.751868
 21
-2.311491
  0
LINE
  8
Layer0$C$L0
 10
4.653725
 20
-2.388422
 11
4.616313
 21
-2.425834
  0
LINE
  8
Layer0$C$L0
 10
4.781865
 20
-2.260281
 11
4.751868
 21
-2.290278
  0
LINE
  8
Layer0$C$L0
 10
4.653725
 20
-2.367209
 11
4.613621
 21
-2.407311
  0
LINE
  8
Layer0$C$L0
 10
4.760651
 20
-2.260281
 11
4.751868
 21
-2.269064
  0
LINE
  8
Layer0$C$L0
 10
4.653725
 20
-2.345995
 11
4.613621
 21
-2.386098
  0
LINE
  8
Layer0$C$L0
 10
4.653725
 20
-2.324783
 11
4.613621
 21
-2.364885
  0
LINE
  8
Layer0$C$L0
 10
4.653725
 20
-2.303569
 11
4.613621
 21
-2.343671
  0
LINE
  8
Layer0$C$L0
 10
4.653725
 20
-2.282356
 11
4.613621
 21
-2.322459
  0
LINE
  8
Layer0$C$L0
 10
4.653725
 20
-2.261143
 11
4.613621
 21
-2.301245
  0
LINE
  8
Layer0$C$L0
 10
4.633315
 20
-2.260339
 11
4.613621
 21
-2.280031
  0
ENDBLK
  8
Layer0$C$L0
  0
BLOCK
  8
Layer0$C$L0
  2
*X5
 70
     1
 10
0.000000
 20
0.000000
  0
LINE
  8
Layer0$C$L0
 10
4.528409
 20
-2.459998
 11
4.573481
 21
-2.414926
  0
LINE
  8
Layer0$C$L0
 10
4.573822
 20
-2.393370
 11
4.506852
 21
-2.460341
  0
LINE
  8
Layer0$C$L0
 10
4.495841
 20
-2.450137
 11
4.485638
 21
-2.460341
  0
LINE
  8
Layer0$C$L0
 10
4.573822
 20
-2.372156
 11
4.533621
 21
-2.412359
  0
LINE
  8
Layer0$C$L0
 10
4.474629
 20
-2.450137
 11
4.464425
 21
-2.460341
  0
LINE
  8
Layer0$C$L0
 10
4.573822
 20
-2.350944
 11
4.533621
 21
-2.391146
  0
LINE
  8
Layer0$C$L0
 10
4.455163
 20
-2.448389
 11
4.443520
 21
-2.460032
  0
LINE
  8
Layer0$C$L0
 10
4.573822
 20
-2.329730
 11
4.533621
 21
-2.369933
  0
LINE
  8
Layer0$C$L0
 10
4.442767
 20
-2.439573
 11
4.426037
 21
-2.456301
  0
LINE
  8
Layer0$C$L0
 10
4.573685
 20
-2.308656
 11
4.533621
 21
-2.348720
  0
LINE
  8
Layer0$C$L0
 10
4.436142
 20
-2.424984
 11
4.413050
 21
-2.448076
  0
LINE
  8
Layer0$C$L0
 10
4.569899
 20
-2.291229
 11
4.533621
 21
-2.327506
  0
LINE
  8
Layer0$C$L0
 10
4.435830
 20
-2.404083
 11
4.403279
 21
-2.436634
  0
LINE
  8
Layer0$C$L0
 10
4.561924
 20
-2.277990
 11
4.533621
 21
-2.306294
  0
LINE
  8
Layer0$C$L0
 10
4.435830
 20
-2.382871
 11
4.397091
 21
-2.421607
  0
LINE
  8
Layer0$C$L0
 10
4.550595
 20
-2.268105
 11
4.530949
 21
-2.287751
  0
LINE
  8
Layer0$C$L0
 10
4.435830
 20
-2.361657
 11
4.395726
 21
-2.401759
  0
LINE
  8
Layer0$C$L0
 10
4.535700
 20
-2.261787
 11
4.521437
 21
-2.276050
  0
LINE
  8
Layer0$C$L0
 10
4.435830
 20
-2.340445
 11
4.395726
 21
-2.380547
  0
LINE
  8
Layer0$C$L0
 10
4.515990
 20
-2.260285
 11
4.505921
 21
-2.270353
  0
LINE
  8
Layer0$C$L0
 10
4.435830
 20
-2.319231
 11
4.395726
 21
-2.359333
  0
LINE
  8
Layer0$C$L0
 10
4.494774
 20
-2.260285
 11
4.484725
 21
-2.270334
  0
LINE
  8
Layer0$C$L0
 10
4.435635
 20
-2.298211
 11
4.395726
 21
-2.338120
  0
LINE
  8
Layer0$C$L0
 10
4.473563
 20
-2.260285
 11
4.463692
 21
-2.270154
  0
LINE
  8
Layer0$C$L0
 10
4.452349
 20
-2.260285
 11
4.395726
 21
-2.316907
  0
LINE
  8
Layer0$C$L0
 10
4.427493
 20
-2.263928
 11
4.399409
 21
-2.292011
  0
ENDBLK
  8
Layer0$C$L0
  0
BLOCK
  8
Layer0$C$L0
  2
*X6
 70
     1
 10
0.000000
 20
0.000000
  0
LINE
  8
Layer0$C$L0
 10
4.336396
 20
-2.449777
 11
4.345257
 21
-2.440914
  0
LINE
  8
Layer0$C$L0
 10
4.355574
 20
-2.409385
 11
4.304867
 21
-2.460093
  0
LINE
  8
Layer0$C$L0
 10
4.294983
 20
-2.448763
 11
4.283654
 21
-2.460093
  0
LINE
  8
Layer0$C$L0
 10
4.355574
 20
-2.388172
 11
4.314244
 21
-2.429502
  0
LINE
  8
Layer0$C$L0
 10
4.272290
 20
-2.450243
 11
4.262440
 21
-2.460093
  0
LINE
  8
Layer0$C$L0
 10
4.355574
 20
-2.366959
 11
4.315724
 21
-2.406808
  0
LINE
  8
Layer0$C$L0
 10
4.251076
 20
-2.450243
 11
4.241227
 21
-2.460093
  0
LINE
  8
Layer0$C$L0
 10
4.340975
 20
-2.360344
 11
4.314696
 21
-2.386624
  0
LINE
  8
Layer0$C$L0
 10
4.233424
 20
-2.446684
 11
4.220326
 21
-2.459780
  0
LINE
  8
Layer0$C$L0
 10
4.319764
 20
-2.360344
 11
4.304743
 21
-2.375363
  0
LINE
  8
Layer0$C$L0
 10
4.355597
 20
-2.324509
 11
4.344990
 21
-2.335116
  0
LINE
  8
Layer0$C$L0
 10
4.222485
 20
-2.436408
 11
4.204453
 21
-2.454439
  0
LINE
  8
Layer0$C$L0
 10
4.298550
 20
-2.360344
 11
4.285737
 21
-2.373156
  0
LINE
  8
Layer0$C$L0
 10
4.355389
 20
-2.303504
 11
4.323777
 21
-2.335116
  0
LINE
  8
Layer0$C$L0
 10
4.217581
 20
-2.420099
 11
4.192225
 21
-2.445455
  0
LINE
  8
Layer0$C$L0
 10
4.277337
 20
-2.360344
 11
4.270762
 21
-2.366918
  0
LINE
  8
Layer0$C$L0
 10
4.350205
 20
-2.287475
 11
4.315798
 21
-2.321882
  0
LINE
  8
Layer0$C$L0
 10
4.217581
 20
-2.398886
 11
4.183350
 21
-2.433118
  0
LINE
  8
Layer0$C$L0
 10
4.341322
 20
-2.275144
 11
4.315798
 21
-2.300669
  0
LINE
  8
Layer0$C$L0
 10
4.217581
 20
-2.377673
 11
4.178296
 21
-2.416958
  0
LINE
  8
Layer0$C$L0
 10
4.329211
 20
-2.266044
 11
4.311070
 21
-2.284184
  0
LINE
  8
Layer0$C$L0
 10
4.217581
 20
-2.356460
 11
4.177832
 21
-2.396209
  0
LINE
  8
Layer0$C$L0
 10
4.313099
 20
-2.260942
 11
4.300131
 21
-2.273909
  0
LINE
  8
Layer0$C$L0
 10
4.217581
 20
-2.335246
 11
4.177832
 21
-2.374995
  0
LINE
  8
Layer0$C$L0
 10
4.292437
 20
-2.260391
 11
4.282740
 21
-2.270087
  0
LINE
  8
Layer0$C$L0
 10
4.217581
 20
-2.314034
 11
4.177832
 21
-2.353782
  0
LINE
  8
Layer0$C$L0
 10
4.271224
 20
-2.260391
 11
4.261527
 21
-2.270087
  0
LINE
  8
Layer0$C$L0
 10
4.219309
 20
-2.291091
 11
4.177832
 21
-2.332569
  0
LINE
  8
Layer0$C$L0
 10
4.250010
 20
-2.260391
 11
4.238572
 21
-2.271830
  0
LINE
  8
Layer0$C$L0
 10
4.228796
 20
-2.260391
 11
4.177832
 21
-2.311356
  0
LINE
  8
Layer0$C$L0
 10
4.197159
 20
-2.270815
 11
4.188296
 21
-2.279678
  0
ENDBLK
  8
Layer0$C$L0
  0
ENDSEC
  0
SECTION
  2
ENTITIES
  0
POINT
  8
Layer0$C$L0
 10
-3.993834
 20
-0.448780
  0
LINE
  8
Layer0$C$L0
 10
-4.204772
 20
-0.448780
 11
-3.782897
 21
-0.448780
  0
LINE
  8
Layer0$C$L0
 10
-4.204772
 20
-0.418030
 11
-3.782897
 21
-0.418030
  0
LINE
  8
Layer0$C$L0
 10
-4.204772
 20
-0.448780
 11
-4.204772
 21
-0.418030
  0
LINE
  8
Layer0$C$L0
 10
-3.782897
 20
-0.448780
 11
-3.782897
 21
-0.418030
  0
POINT
  8
Layer0$C$L0
 10
-3.993834
 20
-0.418030
  0
LINE
  8
Layer0$C$L0
 10
-4.175475
 20
-0.418030
 11
-3.812194
 21
-0.418030
  0
LINE
  8
Layer0$C$L0
 10
-4.175475
 20
-0.367030
 11
-3.812194
 21
-0.367030
  0
LINE
  8
Layer0$C$L0
 10
-4.175475
 20
-0.418030
 11
-4.175475
 21
-0.367030
  0
LINE
  8
Layer0$C$L0
 10
-3.812194
 20
-0.418030
 11
-3.812194
 21
-0.367030
  0
LINE
  8
Layer0$C$L0
 10
-4.025030
 20
-0.418030
 11
-3.995585
 21
-0.367030
  0
LINE
  8
Layer0$C$L0
 10
-3.998183
 20
-0.418030
 11
-3.968738
 21
-0.367030
  0
LINE
  8
Layer0$C$L0
 10
-4.157897
 20
-0.367035
 11
-4.183277
 21
-0.352381
  0
LINE
  8
Layer0$C$L0
 10
-4.183277
 20
-0.352381
 11
-4.183277
 21
-0.255009
  0
LINE
  8
Layer0$C$L0
 10
-4.183277
 20
-0.255009
 11
-4.157897
 21
-0.240355
  0
LINE
  8
Layer0$C$L0
 10
-4.157897
 20
-0.240355
 11
-3.829772
 21
-0.240355
  0
LINE
  8
Layer0$C$L0
 10
-3.829772
 20
-0.240355
 11
-3.804391
 21
-0.255009
  0
LINE
  8
Layer0$C$L0
 10
-3.804391
 20
-0.255009
 11
-3.804391
 21
-0.352381
  0
LINE
  8
Layer0$C$L0
 10
-3.804391
 20
-0.352381
 11
-3.829772
 21
-0.367035
  0
LINE
  8
Layer0$C$L0
 10
-4.088556
 20
-0.352381
 11
-4.088556
 21
-0.255009
  0
LINE
  8
Layer0$C$L0
 10
-3.899113
 20
-0.352381
 11
-3.899113
 21
-0.255009
  0
ARC
  8
Layer0$C$L0
 10
-4.135917
 20
-0.283173
 40
8.386192E-02
100
AcDbArc
 50
235.615298
 51
304.384703
  0
ARC
  8
Layer0$C$L0
 10
-3.993834
 20
-5.356785E-02
 40
0.313467
100
AcDbArc
 50
252.411799
 51
287.588202
  0
ARC
  8
Layer0$C$L0
 10
-3.851752
 20
-0.283173
 40
8.386192E-02
100
AcDbArc
 50
235.615298
 51
304.384703
  0
ARC
  8
Layer0$C$L0
 10
-4.135917
 20
-0.324217
 40
8.386192E-02
100
AcDbArc
 50
55.615311
 51
124.384712
  0
ARC
  8
Layer0$C$L0
 10
-3.993834
 20
-0.553823
 40
0.313467
100
AcDbArc
 50
72.411808
 51
107.588184
  0
ARC
  8
Layer0$C$L0
 10
-3.851752
 20
-0.324217
 40
8.386192E-02
100
AcDbArc
 50
55.615311
 51
124.384712
  0
LINE
  8
Layer0$C$L0
 10
-4.157897
 20
0.274052
 11
-4.183277
 21
0.259398
  0
LINE
  8
Layer0$C$L0
 10
-4.183277
 20
0.259398
 11
-4.183277
 21
0.162026
  0
LINE
  8
Layer0$C$L0
 10
-4.183277
 20
0.162026
 11
-4.157897
 21
0.147372
  0
LINE
  8
Layer0$C$L0
 10
-4.157897
 20
0.147372
 11
-3.829772
 21
0.147372
  0
LINE
  8
Layer0$C$L0
 10
-3.829772
 20
0.147372
 11
-3.804391
 21
0.162026
  0
LINE
  8
Layer0$C$L0
 10
-3.804391
 20
0.162026
 11
-3.804391
 21
0.259398
  0
LINE
  8
Layer0$C$L0
 10
-3.804391
 20
0.259398
 11
-3.829772
 21
0.274052
  0
LINE
  8
Layer0$C$L0
 10
-4.088556
 20
0.259398
 11
-4.088556
 21
0.162026
  0
LINE
  8
Layer0$C$L0
 10
-3.899113
 20
0.259398
 11
-3.899113
 21
0.162026
  0
ARC
  8
Layer0$C$L0
 10
-4.135917
 20
0.190190
 40
8.386192E-02
100
AcDbArc
 50
55.615293
 51
124.384698
  0
ARC
  8
Layer0$C$L0
 10
-3.993834
 20
-3.941566E-02
 40
0.313467
100
AcDbArc
 50
72.411808
 51
107.588197
  0
ARC
  8
Layer0$C$L0
 10
-3.851752
 20
0.190190
 40
8.386192E-02
100
AcDbArc
 50
55.615293
 51
124.384698
  0
ARC
  8
Layer0$C$L0
 10
-4.135917
 20
0.231234
 40
8.386192E-02
100
AcDbArc
 50
235.615298
 51
304.384703
  0
ARC
  8
Layer0$C$L0
 10
-3.993834
 20
0.460839
 40
0.313467
100
AcDbArc
 50
252.411826
 51
287.588202
  0
ARC
  8
Layer0$C$L0
 10
-3.851752
 20
0.231234
 40
8.386192E-02
100
AcDbArc
 50
235.615298
 51
304.384703
  0
POINT
  8
Layer0$C$L0
 10
-3.993834
 20
0.325046
  0
LINE
  8
Layer0$C$L0
 10
-4.175475
 20
0.325046
 11
-3.812194
 21
0.325046
  0
LINE
  8
Layer0$C$L0
 10
-4.175475
 20
0.274046
 11
-3.812194
 21
0.274046
  0
LINE
  8
Layer0$C$L0
 10
-4.175475
 20
0.325046
 11
-4.175475
 21
0.274046
  0
LINE
  8
Layer0$C$L0
 10
-3.812194
 20
0.325046
 11
-3.812194
 21
0.274046
  0
LINE
  8
Layer0$C$L0
 10
-4.025030
 20
0.325046
 11
-3.995585
 21
0.274046
  0
LINE
  8
Layer0$C$L0
 10
-3.998183
 20
0.325046
 11
-3.968738
 21
0.274046
  0
POINT
  8
Layer0$C$L0
 10
-3.993834
 20
0.355797
  0
LINE
  8
Layer0$C$L0
 10
-4.204772
 20
0.355797
 11
-3.782897
 21
0.355797
  0
LINE
  8
Layer0$C$L0
 10
-4.204772
 20
0.325047
 11
-3.782897
 21
0.325047
  0
LINE
  8
Layer0$C$L0
 10
-4.204772
 20
0.355797
 11
-4.204772
 21
0.325047
  0
LINE
  8
Layer0$C$L0
 10
-3.782897
 20
0.355797
 11
-3.782897
 21
0.325047
  0
POINT
  8
Layer0$C$L0
 10
-3.993834
 20
0.355797
  0
LINE
  8
Layer0$C$L0
 10
-4.204772
 20
0.355797
 11
-3.782897
 21
0.355797
  0
LINE
  8
Layer0$C$L0
 10
-4.204772
 20
0.386547
 11
-3.782897
 21
0.386547
  0
LINE
  8
Layer0$C$L0
 10
-4.204772
 20
0.355797
 11
-4.204772
 21
0.386547
  0
LINE
  8
Layer0$C$L0
 10
-3.782897
 20
0.355797
 11
-3.782897
 21
0.386547
  0
POINT
  8
Layer0$C$L0
 10
-3.993834
 20
0.386547
  0
LINE
  8
Layer0$C$L0
 10
-4.175475
 20
0.386547
 11
-3.812194
 21
0.386547
  0
LINE
  8
Layer0$C$L0
 10
-4.175475
 20
0.437547
 11
-3.812194
 21
0.437547
  0
LINE
  8
Layer0$C$L0
 10
-4.175475
 20
0.386547
 11
-4.175475
 21
0.437547
  0
LINE
  8
Layer0$C$L0
 10
-3.812194
 20
0.386547
 11
-3.812194
 21
0.437547
  0
LINE
  8
Layer0$C$L0
 10
-4.025030
 20
0.386547
 11
-3.995585
 21
0.437547
  0
LINE
  8
Layer0$C$L0
 10
-3.998183
 20
0.386547
 11
-3.968738
 21
0.437547
  0
LINE
  8
Layer0$C$L0
 10
-4.157897
 20
0.437542
 11
-4.183277
 21
0.452195
  0
LINE
  8
Layer0$C$L0
 10
-4.183277
 20
0.452195
 11
-4.183277
 21
0.549568
  0
LINE
  8
Layer0$C$L0
 10
-4.183277
 20
0.549568
 11
-4.157897
 21
0.564222
  0
LINE
  8
Layer0$C$L0
 10
-4.157897
 20
0.564222
 11
-3.829772
 21
0.564222
  0
LINE
  8
Layer0$C$L0
 10
-3.829772
 20
0.564222
 11
-3.804391
 21
0.549568
  0
LINE
  8
Layer0$C$L0
 10
-3.804391
 20
0.549568
 11
-3.804391
 21
0.452195
  0
LINE
  8
Layer0$C$L0
 10
-3.804391
 20
0.452195
 11
-3.829772
 21
0.437542
  0
LINE
  8
Layer0$C$L0
 10
-4.088556
 20
0.452195
 11
-4.088556
 21
0.549568
  0
LINE
  8
Layer0$C$L0
 10
-3.899113
 20
0.452195
 11
-3.899113
 21
0.549568
  0
ARC
  8
Layer0$C$L0
 10
-4.135917
 20
0.521404
 40
8.386192E-02
100
AcDbArc
 50
235.615298
 51
304.384703
  0
ARC
  8
Layer0$C$L0
 10
-3.993834
 20
0.751009
 40
0.313467
100
AcDbArc
 50
252.411799
 51
287.588202
  0
ARC
  8
Layer0$C$L0
 10
-3.851752
 20
0.521404
 40
8.386192E-02
100
AcDbArc
 50
235.615298
 51
304.384703
  0
ARC
  8
Layer0$C$L0
 10
-4.135917
 20
0.480360
 40
8.386192E-02
100
AcDbArc
 50
55.615311
 51
124.384712
  0
ARC
  8
Layer0$C$L0
 10
-3.993834
 20
0.250754
 40
0.313467
100
AcDbArc
 50
72.411808
 51
107.588184
  0
ARC
  8
Layer0$C$L0
 10
-3.851752
 20
0.480360
 40
8.386192E-02
100
AcDbArc
 50
55.615311
 51
124.384712
  0
LINE
  8
Layer0$C$L0
 10
-1.111022
 20
0.437542
 11
-1.085642
 21
0.452195
  0
LINE
  8
Layer0$C$L0
 10
-1.085642
 20
0.452195
 11
-1.085642
 21
0.549568
  0
LINE
  8
Layer0$C$L0
 10
-1.085642
 20
0.549568
 11
-1.111022
 21
0.564222
  0
LINE
  8
Layer0$C$L0
 10
-1.111022
 20
0.564222
 11
-1.439147
 21
0.564222
  0
LINE
  8
Layer0$C$L0
 10
-1.439147
 20
0.564222
 11
-1.464528
 21
0.549568
  0
LINE
  8
Layer0$C$L0
 10
-1.464528
 20
0.549568
 11
-1.464528
 21
0.452195
  0
LINE
  8
Layer0$C$L0
 10
-1.464528
 20
0.452195
 11
-1.439147
 21
0.437542
  0
LINE
  8
Layer0$C$L0
 10
-1.180363
 20
0.452195
 11
-1.180363
 21
0.549568
  0
LINE
  8
Layer0$C$L0
 10
-1.369806
 20
0.452195
 11
-1.369806
 21
0.549568
  0
ARC
  8
Layer0$C$L0
 10
-1.133003
 20
0.521404
 40
8.386192E-02
100
AcDbArc
 50
235.615298
 51
304.384703
  0
ARC
  8
Layer0$C$L0
 10
-1.275085
 20
0.751009
 40
0.313467
100
AcDbArc
 50
252.411799
 51
287.588202
  0
ARC
  8
Layer0$C$L0
 10
-1.417167
 20
0.521404
 40
8.386192E-02
100
AcDbArc
 50
235.615298
 51
304.384703
  0
ARC
  8
Layer0$C$L0
 10
-1.133003
 20
0.480360
 40
8.386192E-02
100
AcDbArc
 50
55.615283
 51
124.384684
  0
ARC
  8
Layer0$C$L0
 10
-1.275085
 20
0.250754
 40
0.313467
100
AcDbArc
 50
72.411815
 51
107.588190
  0
ARC
  8
Layer0$C$L0
 10
-1.417167
 20
0.480360
 40
8.386192E-02
100
AcDbArc
 50
55.615283
 51
124.384684
  0
POINT
  8
Layer0$C$L0
 10
-1.275085
 20
0.386547
  0
LINE
  8
Layer0$C$L0
 10
-1.093444
 20
0.386547
 11
-1.456725
 21
0.386547
  0
LINE
  8
Layer0$C$L0
 10
-1.093444
 20
0.437547
 11
-1.456725
 21
0.437547
  0
LINE
  8
Layer0$C$L0
 10
-1.093444
 20
0.386547
 11
-1.093444
 21
0.437547
  0
LINE
  8
Layer0$C$L0
 10
-1.456725
 20
0.386547
 11
-1.456725
 21
0.437547
  0
LINE
  8
Layer0$C$L0
 10
-1.243889
 20
0.386547
 11
-1.273334
 21
0.437547
  0
LINE
  8
Layer0$C$L0
 10
-1.270736
 20
0.386547
 11
-1.300181
 21
0.437547
  0
POINT
  8
Layer0$C$L0
 10
-1.275085
 20
0.355797
  0
LINE
  8
Layer0$C$L0
 10
-1.064147
 20
0.355797
 11
-1.486022
 21
0.355797
  0
LINE
  8
Layer0$C$L0
 10
-1.064147
 20
0.386547
 11
-1.486022
 21
0.386547
  0
LINE
  8
Layer0$C$L0
 10
-1.064147
 20
0.355797
 11
-1.064147
 21
0.386547
  0
LINE
  8
Layer0$C$L0
 10
-1.486022
 20
0.355797
 11
-1.486022
 21
0.386547
  0
POINT
  8
Layer0$C$L0
 10
-1.275085
 20
0.355797
  0
LINE
  8
Layer0$C$L0
 10
-1.064147
 20
0.355797
 11
-1.486022
 21
0.355797
  0
LINE
  8
Layer0$C$L0
 10
-1.064147
 20
0.325047
 11
-1.486022
 21
0.325047
  0
LINE
  8
Layer0$C$L0
 10
-1.064147
 20
0.355797
 11
-1.064147
 21
0.325047
  0
LINE
  8
Layer0$C$L0
 10
-1.486022
 20
0.355797
 11
-1.486022
 21
0.325047
  0
POINT
  8
Layer0$C$L0
 10
-1.275085
 20
0.325046
  0
LINE
  8
Layer0$C$L0
 10
-1.093444
 20
0.325046
 11
-1.456725
 21
0.325046
  0
LINE
  8
Layer0$C$L0
 10
-1.093444
 20
0.274046
 11
-1.456725
 21
0.274046
  0
LINE
  8
Layer0$C$L0
 10
-1.093444
 20
0.325046
 11
-1.093444
 21
0.274046
  0
LINE
  8
Layer0$C$L0
 10
-1.456725
 20
0.325046
 11
-1.456725
 21
0.274046
  0
LINE
  8
Layer0$C$L0
 10
-1.243889
 20
0.325046
 11
-1.273334
 21
0.274046
  0
LINE
  8
Layer0$C$L0
 10
-1.270736
 20
0.325046
 11
-1.300181
 21
0.274046
  0
LINE
  8
Layer0$C$L0
 10
-1.111022
 20
0.274052
 11
-1.085642
 21
0.259398
  0
LINE
  8
Layer0$C$L0
 10
-1.085642
 20
0.259398
 11
-1.085642
 21
0.162026
  0
LINE
  8
Layer0$C$L0
 10
-1.085642
 20
0.162026
 11
-1.111022
 21
0.147372
  0
LINE
  8
Layer0$C$L0
 10
-1.111022
 20
0.147372
 11
-1.439147
 21
0.147372
  0
LINE
  8
Layer0$C$L0
 10
-1.439147
 20
0.147372
 11
-1.464528
 21
0.162026
  0
LINE
  8
Layer0$C$L0
 10
-1.464528
 20
0.162026
 11
-1.464528
 21
0.259398
  0
LINE
  8
Layer0$C$L0
 10
-1.464528
 20
0.259398
 11
-1.439147
 21
0.274052
  0
LINE
  8
Layer0$C$L0
 10
-1.180363
 20
0.259398
 11
-1.180363
 21
0.162026
  0
LINE
  8
Layer0$C$L0
 10
-1.369806
 20
0.259398
 11
-1.369806
 21
0.162026
  0
ARC
  8
Layer0$C$L0
 10
-1.133003
 20
0.190190
 40
8.386192E-02
100
AcDbArc
 50
55.615304
 51
124.384712
  0
ARC
  8
Layer0$C$L0
 10
-1.275085
 20
-3.941566E-02
 40
0.313467
100
AcDbArc
 50
72.411801
 51
107.588190
  0
ARC
  8
Layer0$C$L0
 10
-1.417167
 20
0.190190
 40
8.386192E-02
100
AcDbArc
 50
55.615304
 51
124.384712
  0
ARC
  8
Layer0$C$L0
 10
-1.133003
 20
0.231234
 40
8.386192E-02
100
AcDbArc
 50
235.615298
 51
304.384703
  0
ARC
  8
Layer0$C$L0
 10
-1.275085
 20
0.460839
 40
0.313467
100
AcDbArc
 50
252.411799
 51
287.588175
  0
ARC
  8
Layer0$C$L0
 10
-1.417167
 20
0.231234
 40
8.386192E-02
100
AcDbArc
 50
235.615298
 51
304.384703
  0
LINE
  8
Layer0$C$L0
 10
-1.111022
 20
-0.367035
 11
-1.085642
 21
-0.352381
  0
LINE
  8
Layer0$C$L0
 10
-1.085642
 20
-0.352381
 11
-1.085642
 21
-0.255009
  0
LINE
  8
Layer0$C$L0
 10
-1.085642
 20
-0.255009
 11
-1.111022
 21
-0.240355
  0
LINE
  8
Layer0$C$L0
 10
-1.111022
 20
-0.240355
 11
-1.439147
 21
-0.240355
  0
LINE
  8
Layer0$C$L0
 10
-1.439147
 20
-0.240355
 11
-1.464528
 21
-0.255009
  0
LINE
  8
Layer0$C$L0
 10
-1.464528
 20
-0.255009
 11
-1.464528
 21
-0.352381
  0
LINE
  8
Layer0$C$L0
 10
-1.464528
 20
-0.352381
 11
-1.439147
 21
-0.367035
  0
LINE
  8
Layer0$C$L0
 10
-1.180363
 20
-0.352381
 11
-1.180363
 21
-0.255009
  0
LINE
  8
Layer0$C$L0
 10
-1.369806
 20
-0.352381
 11
-1.369806
 21
-0.255009
  0
ARC
  8
Layer0$C$L0
 10
-1.133003
 20
-0.283173
 40
8.386192E-02
100
AcDbArc
 50
235.615298
 51
304.384703
  0
ARC
  8
Layer0$C$L0
 10
-1.275085
 20
-5.356785E-02
 40
0.313467
100
AcDbArc
 50
252.411799
 51
287.588202
  0
ARC
  8
Layer0$C$L0
 10
-1.417167
 20
-0.283173
 40
8.386192E-02
100
AcDbArc
 50
235.615298
 51
304.384703
  0
ARC
  8
Layer0$C$L0
 10
-1.133003
 20
-0.324217
 40
8.386192E-02
100
AcDbArc
 50
55.615283
 51
124.384684
  0
ARC
  8
Layer0$C$L0
 10
-1.275085
 20
-0.553823
 40
0.313467
100
AcDbArc
 50
72.411815
 51
107.588190
  0
ARC
  8
Layer0$C$L0
 10
-1.417167
 20
-0.324217
 40
8.386192E-02
100
AcDbArc
 50
55.615283
 51
124.384684
  0
POINT
  8
Layer0$C$L0
 10
-1.275085
 20
-0.418030
  0
LINE
  8
Layer0$C$L0
 10
-1.093444
 20
-0.418030
 11
-1.456725
 21
-0.418030
  0
LINE
  8
Layer0$C$L0
 10
-1.093444
 20
-0.367030
 11
-1.456725
 21
-0.367030
  0
LINE
  8
Layer0$C$L0
 10
-1.093444
 20
-0.418030
 11
-1.093444
 21
-0.367030
  0
LINE
  8
Layer0$C$L0
 10
-1.456725
 20
-0.418030
 11
-1.456725
 21
-0.367030
  0
LINE
  8
Layer0$C$L0
 10
-1.243889
 20
-0.418030
 11
-1.273334
 21
-0.367030
  0
LINE
  8
Layer0$C$L0
 10
-1.270736
 20
-0.418030
 11
-1.300181
 21
-0.367030
  0
POINT
  8
Layer0$C$L0
 10
-1.275085
 20
-0.448780
  0
LINE
  8
Layer0$C$L0
 10
-1.064147
 20
-0.448780
 11
-1.486022
 21
-0.448780
  0
LINE
  8
Layer0$C$L0
 10
-1.064147
 20
-0.418030
 11
-1.486022
 21
-0.418030
  0
LINE
  8
Layer0$C$L0
 10
-1.064147
 20
-0.448780
 11
-1.064147
 21
-0.418030
  0
LINE
  8
Layer0$C$L0
 10
-1.486022
 20
-0.448780
 11
-1.486022
 21
-0.418030
  0
LINE
  8
Layer0$C$L0
 10
-3.993834
 20
4.608682
 11
-3.829772
 21
4.513960
  0
LINE
  8
Layer0$C$L0
 10
-3.829772
 20
4.513960
 11
-3.829772
 21
4.324518
  0
LINE
  8
Layer0$C$L0
 10
-3.829772
 20
4.324518
 11
-3.993834
 21
4.229796
  0
LINE
  8
Layer0$C$L0
 10
-3.993834
 20
4.229796
 11
-4.157897
 21
4.324518
  0
LINE
  8
Layer0$C$L0
 10
-4.157897
 20
4.324518
 11
-4.157897
 21
4.513960
  0
LINE
  8
Layer0$C$L0
 10
-4.157897
 20
4.513960
 11
-3.993834
 21
4.608682
  0
CIRCLE
  5
3
100
AcDbEntity
  8
Layer0$C$L0
100
AcDbCircle
 10
-3.993834
 20
4.419239
 40
0.164063
  0
CIRCLE
  5
4
100
AcDbEntity
  8
Layer0$C$L0
100
AcDbCircle
 10
-3.993834
 20
4.419239
 40
9.375000E-02
  0
ARC
  8
Layer0$C$L0
 10
-3.993834
 20
4.419239
 40
7.500000E-02
100
AcDbArc
 50
67.081692
 51
112.918299
  0
ARC
  8
Layer0$C$L0
 10
-3.993834
 20
4.419239
 40
7.500000E-02
100
AcDbArc
 50
157.081701
 51
202.918309
  0
ARC
  8
Layer0$C$L0
 10
-3.993834
 20
4.419239
 40
7.500000E-02
100
AcDbArc
 50
247.081683
 51
292.918291
  0
ARC
  8
Layer0$C$L0
 10
-3.993834
 20
4.419239
 40
7.500000E-02
100
AcDbArc
 50
337.081693
 51
382.918300
  0
LINE
  8
Layer0$C$L0
 10
-1.275085
 20
4.608682
 11
-1.111022
 21
4.513960
  0
LINE
  8
Layer0$C$L0
 10
-1.111022
 20
4.513960
 11
-1.111022
 21
4.324518
  0
LINE
  8
Layer0$C$L0
 10
-1.111022
 20
4.324518
 11
-1.275085
 21
4.229796
  0
LINE
  8
Layer0$C$L0
 10
-1.275085
 20
4.229796
 11
-1.439147
 21
4.324518
  0
LINE
  8
Layer0$C$L0
 10
-1.439147
 20
4.324518
 11
-1.439147
 21
4.513960
  0
LINE
  8
Layer0$C$L0
 10
-1.439147
 20
4.513960
 11
-1.275085
 21
4.608682
  0
CIRCLE
  5
5
100
AcDbEntity
  8
Layer0$C$L0
100
AcDbCircle
 10
-1.275085
 20
4.419239
 40
0.164063
  0
CIRCLE
  5
6
100
AcDbEntity
  8
Layer0$C$L0
100
AcDbCircle
 10
-1.275085
 20
4.419239
 40
9.375000E-02
  0
ARC
  8
Layer0$C$L0
 10
-1.275085
 20
4.419239
 40
7.500000E-02
100
AcDbArc
 50
67.081692
 51
112.918299
  0
ARC
  8
Layer0$C$L0
 10
-1.275085
 20
4.419239
 40
7.500000E-02
100
AcDbArc
 50
157.081701
 51
202.918309
  0
ARC
  8
Layer0$C$L0
 10
-1.275085
 20
4.419239
 40
7.500000E-02
100
AcDbArc
 50
247.081683
 51
292.918291
  0
ARC
  8
Layer0$C$L0
 10
-1.275085
 20
4.419239
 40
7.500000E-02
100
AcDbArc
 50
337.081693
 51
382.918300
  0
POINT
  8
Layer0$C$L0
 10
2.608024
 20
-0.448780
  0
LINE
  8
Layer0$C$L0
 10
2.818962
 20
-0.448780
 11
2.397087
 21
-0.448780
  0
LINE
  8
Layer0$C$L0
 10
2.818962
 20
-0.418030
 11
2.397087
 21
-0.418030
  0
LINE
  8
Layer0$C$L0
 10
2.818962
 20
-0.448780
 11
2.818962
 21
-0.418030
  0
LINE
  8
Layer0$C$L0
 10
2.397087
 20
-0.448780
 11
2.397087
 21
-0.418030
  0
POINT
  8
Layer0$C$L0
 10
2.608024
 20
-0.418030
  0
LINE
  8
Layer0$C$L0
 10
2.789665
 20
-0.418030
 11
2.426384
 21
-0.418030
  0
LINE
  8
Layer0$C$L0
 10
2.789665
 20
-0.367030
 11
2.426384
 21
-0.367030
  0
LINE
  8
Layer0$C$L0
 10
2.789665
 20
-0.418030
 11
2.789665
 21
-0.367030
  0
LINE
  8
Layer0$C$L0
 10
2.426384
 20
-0.418030
 11
2.426384
 21
-0.367030
  0
LINE
  8
Layer0$C$L0
 10
2.639220
 20
-0.418030
 11
2.609775
 21
-0.367030
  0
LINE
  8
Layer0$C$L0
 10
2.612373
 20
-0.418030
 11
2.582928
 21
-0.367030
  0
LINE
  8
Layer0$C$L0
 10
2.772087
 20
-0.367035
 11
2.797467
 21
-0.352381
  0
LINE
  8
Layer0$C$L0
 10
2.797467
 20
-0.352381
 11
2.797467
 21
-0.255009
  0
LINE
  8
Layer0$C$L0
 10
2.797467
 20
-0.255009
 11
2.772087
 21
-0.240355
  0
LINE
  8
Layer0$C$L0
 10
2.772087
 20
-0.240355
 11
2.443962
 21
-0.240355
  0
LINE
  8
Layer0$C$L0
 10
2.443962
 20
-0.240355
 11
2.418581
 21
-0.255009
  0
LINE
  8
Layer0$C$L0
 10
2.418581
 20
-0.255009
 11
2.418581
 21
-0.352381
  0
LINE
  8
Layer0$C$L0
 10
2.418581
 20
-0.352381
 11
2.443962
 21
-0.367035
  0
LINE
  8
Layer0$C$L0
 10
2.702746
 20
-0.352381
 11
2.702746
 21
-0.255009
  0
LINE
  8
Layer0$C$L0
 10
2.513303
 20
-0.352381
 11
2.513303
 21
-0.255009
  0
ARC
  8
Layer0$C$L0
 10
2.750106
 20
-0.283173
 40
8.386192E-02
100
AcDbArc
 50
235.615298
 51
304.384703
  0
ARC
  8
Layer0$C$L0
 10
2.608024
 20
-5.356785E-02
 40
0.313467
100
AcDbArc
 50
252.411799
 51
287.588202
  0
ARC
  8
Layer0$C$L0
 10
2.465942
 20
-0.283173
 40
8.386192E-02
100
AcDbArc
 50
235.615298
 51
304.384703
  0
ARC
  8
Layer0$C$L0
 10
2.750106
 20
-0.324217
 40
8.386192E-02
100
AcDbArc
 50
55.615283
 51
124.384684
  0
ARC
  8
Layer0$C$L0
 10
2.608024
 20
-0.553823
 40
0.313467
100
AcDbArc
 50
72.411815
 51
107.588190
  0
ARC
  8
Layer0$C$L0
 10
2.465942
 20
-0.324217
 40
8.386192E-02
100
AcDbArc
 50
55.615283
 51
124.384684
  0
LINE
  8
Layer0$C$L0
 10
2.772087
 20
0.274052
 11
2.797467
 21
0.259398
  0
LINE
  8
Layer0$C$L0
 10
2.797467
 20
0.259398
 11
2.797467
 21
0.162026
  0
LINE
  8
Layer0$C$L0
 10
2.797467
 20
0.162026
 11
2.772087
 21
0.147372
  0
LINE
  8
Layer0$C$L0
 10
2.772087
 20
0.147372
 11
2.443962
 21
0.147372
  0
LINE
  8
Layer0$C$L0
 10
2.443962
 20
0.147372
 11
2.418581
 21
0.162026
  0
LINE
  8
Layer0$C$L0
 10
2.418581
 20
0.162026
 11
2.418581
 21
0.259398
  0
LINE
  8
Layer0$C$L0
 10
2.418581
 20
0.259398
 11
2.443962
 21
0.274052
  0
LINE
  8
Layer0$C$L0
 10
2.702746
 20
0.259398
 11
2.702746
 21
0.162026
  0
LINE
  8
Layer0$C$L0
 10
2.513303
 20
0.259398
 11
2.513303
 21
0.162026
  0
ARC
  8
Layer0$C$L0
 10
2.750106
 20
0.190190
 40
8.386192E-02
100
AcDbArc
 50
55.615304
 51
124.384712
  0
ARC
  8
Layer0$C$L0
 10
2.608024
 20
-3.941566E-02
 40
0.313467
100
AcDbArc
 50
72.411801
 51
107.588190
  0
ARC
  8
Layer0$C$L0
 10
2.465942
 20
0.190190
 40
8.386192E-02
100
AcDbArc
 50
55.615304
 51
124.384712
  0
ARC
  8
Layer0$C$L0
 10
2.750106
 20
0.231234
 40
8.386192E-02
100
AcDbArc
 50
235.615298
 51
304.384703
  0
ARC
  8
Layer0$C$L0
 10
2.608024
 20
0.460839
 40
0.313467
100
AcDbArc
 50
252.411799
 51
287.588175
  0
ARC
  8
Layer0$C$L0
 10
2.465942
 20
0.231234
 40
8.386192E-02
100
AcDbArc
 50
235.615298
 51
304.384703
  0
POINT
  8
Layer0$C$L0
 10
2.608024
 20
0.325046
  0
LINE
  8
Layer0$C$L0
 10
2.789665
 20
0.325046
 11
2.426384
 21
0.325046
  0
LINE
  8
Layer0$C$L0
 10
2.789665
 20
0.274046
 11
2.426384
 21
0.274046
  0
LINE
  8
Layer0$C$L0
 10
2.789665
 20
0.325046
 11
2.789665
 21
0.274046
  0
LINE
  8
Layer0$C$L0
 10
2.426384
 20
0.325046
 11
2.426384
 21
0.274046
  0
LINE
  8
Layer0$C$L0
 10
2.639220
 20
0.325046
 11
2.609775
 21
0.274046
  0
LINE
  8
Layer0$C$L0
 10
2.612373
 20
0.325046
 11
2.582928
 21
0.274046
  0
POINT
  8
Layer0$C$L0
 10
2.608024
 20
0.355797
  0
LINE
  8
Layer0$C$L0
 10
2.818962
 20
0.355797
 11
2.397087
 21
0.355797
  0
LINE
  8
Layer0$C$L0
 10
2.818962
 20
0.325047
 11
2.397087
 21
0.325047
  0
LINE
  8
Layer0$C$L0
 10
2.818962
 20
0.355797
 11
2.818962
 21
0.325047
  0
LINE
  8
Layer0$C$L0
 10
2.397087
 20
0.355797
 11
2.397087
 21
0.325047
  0
POINT
  8
Layer0$C$L0
 10
2.608024
 20
0.355797
  0
LINE
  8
Layer0$C$L0
 10
2.818962
 20
0.355797
 11
2.397087
 21
0.355797
  0
LINE
  8
Layer0$C$L0
 10
2.818962
 20
0.386547
 11
2.397087
 21
0.386547
  0
LINE
  8
Layer0$C$L0
 10
2.818962
 20
0.355797
 11
2.818962
 21
0.386547
  0
LINE
  8
Layer0$C$L0
 10
2.397087
 20
0.355797
 11
2.397087
 21
0.386547
  0
POINT
  8
Layer0$C$L0
 10
2.608024
 20
0.386547
  0
LINE
  8
Layer0$C$L0
 10
2.789665
 20
0.386547
 11
2.426384
 21
0.386547
  0
LINE
  8
Layer0$C$L0
 10
2.789665
 20
0.437547
 11
2.426384
 21
0.437547
  0
LINE
  8
Layer0$C$L0
 10
2.789665
 20
0.386547
 11
2.789665
 21
0.437547
  0
LINE
  8
Layer0$C$L0
 10
2.426384
 20
0.386547
 11
2.426384
 21
0.437547
  0
LINE
  8
Layer0$C$L0
 10
2.639220
 20
0.386547
 11
2.609775
 21
0.437547
  0
LINE
  8
Layer0$C$L0
 10
2.612373
 20
0.386547
 11
2.582928
 21
0.437547
  0
LINE
  8
Layer0$C$L0
 10
2.772087
 20
0.437542
 11
2.797467
 21
0.452195
  0
LINE
  8
Layer0$C$L0
 10
2.797467
 20
0.452195
 11
2.797467
 21
0.549568
  0
LINE
  8
Layer0$C$L0
 10
2.797467
 20
0.549568
 11
2.772087
 21
0.564222
  0
LINE
  8
Layer0$C$L0
 10
2.772087
 20
0.564222
 11
2.443962
 21
0.564222
  0
LINE
  8
Layer0$C$L0
 10
2.443962
 20
0.564222
 11
2.418581
 21
0.549568
  0
LINE
  8
Layer0$C$L0
 10
2.418581
 20
0.549568
 11
2.418581
 21
0.452195
  0
LINE
  8
Layer0$C$L0
 10
2.418581
 20
0.452195
 11
2.443962
 21
0.437542
  0
LINE
  8
Layer0$C$L0
 10
2.702746
 20
0.452195
 11
2.702746
 21
0.549568
  0
LINE
  8
Layer0$C$L0
 10
2.513303
 20
0.452195
 11
2.513303
 21
0.549568
  0
ARC
  8
Layer0$C$L0
 10
2.750106
 20
0.521404
 40
8.386192E-02
100
AcDbArc
 50
235.615298
 51
304.384703
  0
ARC
  8
Layer0$C$L0
 10
2.608024
 20
0.751009
 40
0.313467
100
AcDbArc
 50
252.411799
 51
287.588202
  0
ARC
  8
Layer0$C$L0
 10
2.465942
 20
0.521404
 40
8.386192E-02
100
AcDbArc
 50
235.615298
 51
304.384703
  0
ARC
  8
Layer0$C$L0
 10
2.750106
 20
0.480360
 40
8.386192E-02
100
AcDbArc
 50
55.615283
 51
124.384684
  0
ARC
  8
Layer0$C$L0
 10
2.608024
 20
0.250754
 40
0.313467
100
AcDbArc
 50
72.411815
 51
107.588190
  0
ARC
  8
Layer0$C$L0
 10
2.465942
 20
0.480360
 40
8.386192E-02
100
AcDbArc
 50
55.615283
 51
124.384684
  0
LINE
  8
Layer0$C$L0
 10
4.426432
 20
6.061382
 11
8.801431
 21
6.061382
  0
LINE
  8
Layer0$C$L0
 10
4.426432
 20
6.061382
 11
4.426432
 21
6.261382
  0
LINE
  8
Layer0$C$L0
 10
4.801432
 20
6.061382
 11
4.801432
 21
6.261382
  0
LINE
  8
Layer0$C$L0
 10
5.426431
 20
6.061382
 11
5.426431
 21
6.261382
  0
LINE
  8
Layer0$C$L0
 10
5.801431
 20
6.061382
 11
5.801431
 21
6.261382
  0
LINE
  8
Layer0$C$L0
 10
8.051431
 20
6.061382
 11
8.051431
 21
6.261382
  0
LINE
  8
Layer0$C$L0
 10
8.426431
 20
6.061382
 11
8.426431
 21
6.261382
  0
LINE
  8
Layer0$C$L0
 10
8.801431
 20
6.061382
 11
8.801431
 21
6.261382
  0
TEXT
  8
Layer0$C$L0
 10
4.512080
 20
6.119861
 40
6.250000E-02
  1
REV
 72
     5
 11
4.682867
 21
6.119861
  0
TEXT
  8
Layer0$C$L0
 10
4.987021
 20
6.119861
 40
6.250000E-02
  1
DATE
 72
     5
 11
5.220309
 21
6.119861
  0
TEXT
  8
Layer0$C$L0
 10
5.519765
 20
6.119861
 40
6.250000E-02
  1
ECO
 72
     5
 11
5.690553
 21
6.119861
  0
TEXT
  8
Layer0$C$L0
 10
6.581293
 20
6.119861
 40
6.250000E-02
  1
DESCRIPTION
 72
     5
 11
7.252080
 21
6.119861
  0
TEXT
  8
Layer0$C$L0
 10
8.160116
 20
6.119678
 40
6.250000E-02
  1
BY
 72
     5
 11
8.268404
 21
6.119678
  0
TEXT
  8
Layer0$C$L0
 10
8.530110
 20
6.119861
 40
6.250000E-02
  1
CK
 72
     5
 11
8.638398
 21
6.119861
  0
LINE
  8
Layer0$C$L0
 10
4.426432
 20
5.861381
 11
8.801431
 21
5.861381
  0
LINE
  8
Layer0$C$L0
 10
4.426432
 20
5.861381
 11
4.426432
 21
6.061382
  0
LINE
  8
Layer0$C$L0
 10
4.801432
 20
5.861381
 11
4.801432
 21
6.061382
  0
LINE
  8
Layer0$C$L0
 10
5.426431
 20
5.861381
 11
5.426431
 21
6.061382
  0
LINE
  8
Layer0$C$L0
 10
5.801431
 20
5.861381
 11
5.801431
 21
6.061382
  0
LINE
  8
Layer0$C$L0
 10
8.051431
 20
5.861381
 11
8.051431
 21
6.061382
  0
LINE
  8
Layer0$C$L0
 10
8.426431
 20
5.861381
 11
8.426431
 21
6.061382
  0
LINE
  8
Layer0$C$L0
 10
8.801431
 20
5.861381
 11
8.801431
 21
6.061382
  0
LINE
  8
Layer0$C$L0
 10
4.426432
 20
5.661381
 11
8.801432
 21
5.661381
  0
LINE
  8
Layer0$C$L0
 10
4.426432
 20
5.661381
 11
4.426432
 21
5.861382
  0
LINE
  8
Layer0$C$L0
 10
4.801432
 20
5.661381
 11
4.801432
 21
5.861382
  0
LINE
  8
Layer0$C$L0
 10
5.426432
 20
5.661381
 11
5.426432
 21
5.861382
  0
LINE
  8
Layer0$C$L0
 10
5.801432
 20
5.661381
 11
5.801432
 21
5.861382
  0
LINE
  8
Layer0$C$L0
 10
8.051432
 20
5.661381
 11
8.051432
 21
5.861382
  0
LINE
  8
Layer0$C$L0
 10
8.426432
 20
5.661381
 11
8.426432
 21
5.861382
  0
LINE
  8
Layer0$C$L0
 10
8.801432
 20
5.661381
 11
8.801432
 21
5.861382
  0
LINE
  8
Layer0$C$L0
 10
4.426432
 20
5.255454
 11
8.801431
 21
5.255454
  0
LINE
  8
Layer0$C$L0
 10
4.426432
 20
5.255454
 11
4.426432
 21
5.661382
  0
LINE
  8
Layer0$C$L0
 10
4.801432
 20
5.255454
 11
4.801432
 21
5.661382
  0
LINE
  8
Layer0$C$L0
 10
5.426432
 20
5.255454
 11
5.426432
 21
5.661382
  0
LINE
  8
Layer0$C$L0
 10
5.801432
 20
5.255454
 11
5.801432
 21
5.661382
  0
LINE
  8
Layer0$C$L0
 10
8.051432
 20
5.255454
 11
8.051432
 21
5.661382
  0
LINE
  8
Layer0$C$L0
 10
8.426432
 20
5.255454
 11
8.426432
 21
5.661382
  0
LINE
  8
Layer0$C$L0
 10
8.801432
 20
5.461382
 11
8.801432
 21
5.661382
  0
LINE
  8
Layer0$C$L0
 10
7.432444
 20
-2.663643
 11
7.509792
 21
-2.529671
  0
LINE
  8
Layer0$C$L0
 10
7.432444
 20
-2.663643
 11
7.405373
 21
-2.616754
  0
LINE
  8
Layer0$C$L0
 10
4.270726
 20
-2.360245
 11
4.355727
 21
-2.360245
  0
LINE
  8
Layer0$C$L0
 10
4.270726
 20
-2.373245
 11
4.295725
 21
-2.373245
  0
LINE
  8
Layer0$C$L0
 10
4.270726
 20
-2.373245
 11
4.270726
 21
-2.360245
  0
LINE
  8
Layer0$C$L0
 10
4.791728
 20
-2.410245
 11
4.791728
 21
-2.260245
  0
LINE
  8
Layer0$C$L0
 10
4.613728
 20
-2.410245
 11
4.613728
 21
-2.260245
  0
LINE
  8
Layer0$C$L0
 10
4.751729
 20
-2.420244
 11
4.751729
 21
-2.260245
  0
LINE
  8
Layer0$C$L0
 10
4.653727
 20
-2.420244
 11
4.653727
 21
-2.260245
  0
LINE
  8
Layer0$C$L0
 10
4.663727
 20
-2.460244
 11
4.741728
 21
-2.460244
  0
LINE
  8
Layer0$C$L0
 10
4.683728
 20
-2.450245
 11
4.721728
 21
-2.450245
  0
ARC
  8
Layer0$C$L0
 10
4.663727
 20
-2.410245
 40
5.000000E-02
100
AcDbArc
 50
180.000005
 51
270.000001
  0
ARC
  8
Layer0$C$L0
 10
4.741728
 20
-2.410245
 40
5.000000E-02
100
AcDbArc
 50
270.000001
 51
360.000010
  0
ARC
  8
Layer0$C$L0
 10
4.683728
 20
-2.420244
 40
3.000000E-02
100
AcDbArc
 50
180.000005
 51
270.000001
  0
ARC
  8
Layer0$C$L0
 10
4.721728
 20
-2.420244
 40
3.000000E-02
100
AcDbArc
 50
270.000001
 51
360.000010
  0
ARC
  8
Layer0$C$L0
 10
4.247725
 20
-2.300245
 40
3.000000E-02
100
AcDbArc
 50
90.000003
 51
180.000005
  0
ARC
  8
Layer0$C$L0
 10
4.285727
 20
-2.300245
 40
3.000000E-02
100
AcDbArc
 50
1.001791E-05
 51
89.999989
  0
ARC
  8
Layer0$C$L0
 10
4.285727
 20
-2.420244
 40
3.000000E-02
100
AcDbArc
 50
270.000001
 51
360.000010
  0
ARC
  8
Layer0$C$L0
 10
4.247725
 20
-2.420244
 40
3.000000E-02
100
AcDbArc
 50
180.000005
 51
270.000001
  0
ARC
  8
Layer0$C$L0
 10
4.227726
 20
-2.310245
 40
5.000000E-02
100
AcDbArc
 50
90.000003
 51
180.000005
  0
ARC
  8
Layer0$C$L0
 10
4.305726
 20
-2.310245
 40
5.000000E-02
100
AcDbArc
 50
0.000000
 51
90.000003
  0
ARC
  8
Layer0$C$L0
 10
4.305726
 20
-2.410245
 40
5.000000E-02
100
AcDbArc
 50
270.000001
 51
360.000010
  0
ARC
  8
Layer0$C$L0
 10
4.227726
 20
-2.410245
 40
5.000000E-02
100
AcDbArc
 50
180.000005
 51
270.000001
  0
LINE
  8
Layer0$C$L0
 10
4.247725
 20
-2.270245
 11
4.285727
 21
-2.270245
  0
LINE
  8
Layer0$C$L0
 10
4.247725
 20
-2.450245
 11
4.285727
 21
-2.450245
  0
LINE
  8
Layer0$C$L0
 10
4.227726
 20
-2.260245
 11
4.305726
 21
-2.260245
  0
LINE
  8
Layer0$C$L0
 10
4.227726
 20
-2.460244
 11
4.305726
 21
-2.460244
  0
LINE
  8
Layer0$C$L0
 10
4.217726
 20
-2.420244
 11
4.217726
 21
-2.300245
  0
LINE
  8
Layer0$C$L0
 10
4.315726
 20
-2.335244
 11
4.315726
 21
-2.300245
  0
LINE
  8
Layer0$C$L0
 10
4.177725
 20
-2.410245
 11
4.177725
 21
-2.310245
  0
LINE
  8
Layer0$C$L0
 10
4.355727
 20
-2.335244
 11
4.355727
 21
-2.310245
  0
LINE
  8
Layer0$C$L0
 10
4.315726
 20
-2.335244
 11
4.355727
 21
-2.335244
  0
LINE
  8
Layer0$C$L0
 10
4.315726
 20
-2.420244
 11
4.315726
 21
-2.393245
  0
LINE
  8
Layer0$C$L0
 10
4.355727
 20
-2.410245
 11
4.355727
 21
-2.360245
  0
ARC
  8
Layer0$C$L0
 10
4.295725
 20
-2.393245
 40
2.000000E-02
100
AcDbArc
 50
0.000000
 51
90.000003
  0
ARC
  8
Layer0$C$L0
 10
4.465725
 20
-2.300245
 40
3.000000E-02
100
AcDbArc
 50
90.000003
 51
180.000005
  0
ARC
  8
Layer0$C$L0
 10
4.503727
 20
-2.300245
 40
3.000000E-02
100
AcDbArc
 50
1.001791E-05
 51
89.999989
  0
ARC
  8
Layer0$C$L0
 10
4.503727
 20
-2.420244
 40
3.000000E-02
100
AcDbArc
 50
270.000001
 51
360.000010
  0
ARC
  8
Layer0$C$L0
 10
4.465725
 20
-2.420244
 40
3.000000E-02
100
AcDbArc
 50
180.000005
 51
270.000001
  0
ARC
  8
Layer0$C$L0
 10
4.445727
 20
-2.310245
 40
5.000000E-02
100
AcDbArc
 50
90.000003
 51
180.000005
  0
ARC
  8
Layer0$C$L0
 10
4.523728
 20
-2.310245
 40
5.000000E-02
100
AcDbArc
 50
0.000000
 51
90.000003
  0
ARC
  8
Layer0$C$L0
 10
4.523728
 20
-2.410245
 40
5.000000E-02
100
AcDbArc
 50
270.000001
 51
360.000010
  0
ARC
  8
Layer0$C$L0
 10
4.445727
 20
-2.410245
 40
5.000000E-02
100
AcDbArc
 50
180.000005
 51
270.000001
  0
LINE
  8
Layer0$C$L0
 10
4.465725
 20
-2.270245
 11
4.503727
 21
-2.270245
  0
LINE
  8
Layer0$C$L0
 10
4.465725
 20
-2.450245
 11
4.503727
 21
-2.450245
  0
LINE
  8
Layer0$C$L0
 10
4.445727
 20
-2.260245
 11
4.523728
 21
-2.260245
  0
LINE
  8
Layer0$C$L0
 10
4.445727
 20
-2.460244
 11
4.523728
 21
-2.460244
  0
LINE
  8
Layer0$C$L0
 10
4.435727
 20
-2.420244
 11
4.435727
 21
-2.300245
  0
LINE
  8
Layer0$C$L0
 10
4.533728
 20
-2.420244
 11
4.533728
 21
-2.300245
  0
LINE
  8
Layer0$C$L0
 10
4.395726
 20
-2.410245
 11
4.395726
 21
-2.310245
  0
LINE
  8
Layer0$C$L0
 10
4.573727
 20
-2.410245
 11
4.573727
 21
-2.310245
  0
LINE
  8
Layer0$C$L0
 10
4.871727
 20
-2.450245
 11
5.009728
 21
-2.450245
  0
LINE
  8
Layer0$C$L0
 10
4.831728
 20
-2.460244
 11
5.009728
 21
-2.460244
  0
LINE
  8
Layer0$C$L0
 10
4.871727
 20
-2.450245
 11
4.871727
 21
-2.260245
  0
LINE
  8
Layer0$C$L0
 10
4.831728
 20
-2.460244
 11
4.831728
 21
-2.260245
  0
ARC
  8
Layer0$C$L0
 10
5.157729
 20
-2.300245
 40
3.000000E-02
100
AcDbArc
 50
1.001791E-05
 51
89.999989
  0
ARC
  8
Layer0$C$L0
 10
5.157729
 20
-2.420244
 40
3.000000E-02
100
AcDbArc
 50
270.000001
 51
360.000010
  0
ARC
  8
Layer0$C$L0
 10
5.177727
 20
-2.310245
 40
5.000000E-02
100
AcDbArc
 50
0.000000
 51
90.000003
  0
ARC
  8
Layer0$C$L0
 10
5.177727
 20
-2.410245
 40
5.000000E-02
100
AcDbArc
 50
270.000001
 51
360.000010
  0
LINE
  8
Layer0$C$L0
 10
5.089728
 20
-2.270245
 11
5.157729
 21
-2.270245
  0
LINE
  8
Layer0$C$L0
 10
5.089728
 20
-2.450245
 11
5.157729
 21
-2.450245
  0
LINE
  8
Layer0$C$L0
 10
5.049727
 20
-2.260245
 11
5.177727
 21
-2.260245
  0
LINE
  8
Layer0$C$L0
 10
5.049727
 20
-2.460244
 11
5.177727
 21
-2.460244
  0
LINE
  8
Layer0$C$L0
 10
5.089728
 20
-2.450245
 11
5.089728
 21
-2.270245
  0
LINE
  8
Layer0$C$L0
 10
5.187727
 20
-2.420244
 11
5.187727
 21
-2.300245
  0
LINE
  8
Layer0$C$L0
 10
5.049727
 20
-2.460244
 11
5.049727
 21
-2.260245
  0
LINE
  8
Layer0$C$L0
 10
5.227728
 20
-2.410245
 11
5.227728
 21
-2.310245
  0
LINE
  8
Layer0$C$L0
 10
4.613728
 20
-2.260245
 11
4.653727
 21
-2.260245
  0
LINE
  8
Layer0$C$L0
 10
4.751729
 20
-2.260245
 11
4.791728
 21
-2.260245
  0
LINE
  8
Layer0$C$L0
 10
4.831728
 20
-2.260245
 11
4.871727
 21
-2.260245
  0
LINE
  8
Layer0$C$L0
 10
5.009728
 20
-2.450245
 11
5.009728
 21
-2.460244
  0
LINE
  8
Layer0$C$L0
 10
4.001916
 20
-2.159790
 11
3.889417
 21
-2.159790
  0
LINE
  8
Layer0$C$L0
 10
4.001916
 20
-2.259789
 11
4.001916
 21
-2.159790
  0
LINE
  8
Layer0$C$L0
 10
4.101917
 20
-2.259789
 11
4.001916
 21
-2.259789
  0
LINE
  8
Layer0$C$L0
 10
4.101917
 20
-2.359790
 11
4.101917
 21
-2.259789
  0
LINE
  8
Layer0$C$L0
 10
4.001916
 20
-2.359790
 11
4.101917
 21
-2.359790
  0
LINE
  8
Layer0$C$L0
 10
4.001916
 20
-2.459789
 11
4.001916
 21
-2.359790
  0
LINE
  8
Layer0$C$L0
 10
3.889417
 20
-2.459789
 11
4.001916
 21
-2.459789
  0
LINE
  8
Layer0$C$L0
 10
4.026916
 20
-2.309789
 11
3.889417
 21
-2.459789
  0
LINE
  8
Layer0$C$L0
 10
3.889417
 20
-2.159790
 11
4.026916
 21
-2.309789
  0
LINE
  8
Layer0$C$L0
 10
3.789417
 20
-2.359790
 11
3.789417
 21
-2.259789
  0
LINE
  8
Layer0$C$L0
 10
3.951917
 20
-2.359790
 11
3.789417
 21
-2.359790
  0
LINE
  8
Layer0$C$L0
 10
3.951917
 20
-2.259789
 11
3.951917
 21
-2.359790
  0
LINE
  8
Layer0$C$L0
 10
3.789417
 20
-2.259789
 11
3.951917
 21
-2.259789
  0
LINE
  8
Layer0$C$L0
 10
3.760412
 20
-3.551118
 11
3.760412
 21
-2.114235
  0
LINE
  8
Layer0$C$L0
 10
3.760412
 20
-2.577229
 11
6.325691
 21
-2.577229
  0
LINE
  8
Layer0$C$L0
 10
6.325691
 20
-3.224844
 11
6.325691
 21
-2.114235
  0
LINE
  8
Layer0$C$L0
 10
5.659573
 20
-3.224844
 11
5.659573
 21
-2.577229
  0
LINE
  8
Layer0$C$L0
 10
3.760412
 20
-3.224844
 11
8.801431
 21
-3.224844
  0
LINE
  8
Layer0$C$L0
 10
6.899293
 20
-3.551118
 11
6.899293
 21
-3.224844
  0
LINE
  8
Layer0$C$L0
 10
3.760412
 20
-2.114235
 11
8.801431
 21
-2.114235
  0
LINE
  8
Layer0$C$L0
 10
6.325691
 20
-3.057903
 11
8.801431
 21
-3.057903
  0
LINE
  8
Layer0$C$L0
 10
3.760412
 20
-2.901036
 11
6.325691
 21
-2.901036
  0
TEXT
  8
Layer0$C$L0
 10
3.796908
 20
-2.551719
 40
6.000000E-02
  1
CIRCUIT PROTECTION DIV.
 72
     5
 11
5.160864
 21
-2.551719
  0
TEXT
  8
Layer0$C$L0
 10
5.278434
 20
-2.318607
 40
4.687500E-02
  1
GOULD INC.
 72
     5
 11
5.734650
 21
-2.318607
  0
TEXT
  8
Layer0$C$L0
 10
5.141481
 20
-2.650008
 40
4.687500E-02
  1
DATE:
 72
     5
 11
5.363322
 21
-2.650008
  0
TEXT
  8
Layer0$C$L0
 10
5.286399
 20
-2.461980
 40
4.687500E-02
  1
MARBLE FALLS, TX 78654
 72
     5
 11
6.305115
 21
-2.461980
  0
TEXT
  8
Layer0$C$L0
 10
5.282416
 20
-2.390293
 40
4.687500E-02
  1
P.O. BOX 729
 72
     5
 11
5.832382
 21
-2.390293
  0
TEXT
  8
Layer0$C$L0
 10
5.147649
 20
-2.976900
 40
4.687500E-02
  1
DATE:
 72
     5
 11
5.369490
 21
-2.976900
  0
TEXT
  8
Layer0$C$L0
 10
5.690413
 20
-2.976900
 40
4.687500E-02
  1
SCALE:
 72
     5
 11
5.959128
 21
-2.976900
  0
TEXT
  8
Layer0$C$L0
 10
5.795264
 20
-3.132577
 40
6.300000E-02
  1
NONE
 72
     5
 11
6.030418
 21
-3.132577
  0
TEXT
  8
Layer0$C$L0
 10
5.665741
 20
-2.643841
 40
4.687500E-02
  1
INIT. REL.
 72
     5
 11
6.121957
 21
-2.643841
  0
TEXT
  8
Layer0$C$L0
 10
6.436631
 20
-2.814801
 40
4.687500E-02
  1
THIS DRAWING AND ALL INFORMATION THERE ON IS THE
 72
     5
 11
8.674097
 21
-2.814801
  0
TEXT
  8
Layer0$C$L0
 10
6.436631
 20
-2.885113
 40
4.687500E-02
  1
PROPERTY OF GOULD INC. AND IS SUBJECT TO RETURN ON
 72
     5
 11
8.767847
 21
-2.885113
  0
TEXT
  8
Layer0$C$L0
 10
6.436631
 20
-2.955426
 40
4.687500E-02
  1
DEMAND.  THIS INFORMATION IS CONFIDENTIAL AND MUST
 72
     5
 11
8.767847
 21
-2.955426
  0
TEXT
  8
Layer0$C$L0
 10
6.436631
 20
-3.025738
 40
4.687500E-02
  1
NOT BE MADE PUBLIC OR COPIED UNLESS AUTHORIZED.
 72
     5
 11
8.627222
 21
-3.025738
  0
TEXT
  8
Layer0$C$L0
 10
6.356530
 20
-3.169584
 40
6.300000E-02
  1
REFDOC:
 72
     5
 11
6.780684
 21
-3.169584
  0
TEXT
  8
Layer0$C$L0
 10
6.436631
 20
-2.739786
 40
4.687500E-02
  1
BREAK ALL SHARP EDGES
 72
     5
 11
7.408472
 21
-2.739786
  0
TEXT
  8
Layer0$C$L0
 10
6.436631
 20
-2.607558
 40
4.687500E-02
  1
ALL SURFACES TO BE 125  UNLESS OTHERWISE SPECIFIED
 72
     5
 11
8.767847
 21
-2.607558
  0
TEXT
  8
Layer0$C$L0
 10
6.436631
 20
-2.498913
 40
4.687500E-02
  1
DIMENSIONS APPLY AFTER PLATING
 72
     5
 11
7.830347
 21
-2.498913
  0
TEXT
  8
Layer0$C$L0
 10
6.436631
 20
-2.415900
 40
4.687500E-02
  1
UNSPECIFIED ANGLES%%p1%%d, SPECIFIED ANGLES%%pO%%d30'
 72
     5
 11
8.533472
 21
-2.415900
  0
TEXT
  8
Layer0$C$L0
 10
6.436631
 20
-2.189705
 40
4.687500E-02
  1
TOLERANCE TO BE APPLIED UNLESS OTHERWISE
 72
     5
 11
8.299097
 21
-2.189705
  0
TEXT
  8
Layer0$C$L0
 10
6.930132
 20
-3.298549
 40
4.687500E-02
  1
IDENTIFICATION NO. & REVISION
 72
     5
 11
8.276973
 21
-3.298549
  0
TEXT
  8
Layer0$C$L0
 10
3.821579
 20
-2.650008
 40
4.687500E-02
  1
DRAWN BY:
 72
     5
 11
4.230920
 21
-2.650008
  0
TEXT
  8
Layer0$C$L0
 10
3.821580
 20
-2.983068
 40
4.687500E-02
  1
CHECKED BY:
 72
     5
 11
4.324671
 21
-2.983068
  0
TEXT
  8
Layer0$C$L0
 10
3.821579
 20
-3.298549
 40
4.687500E-02
  1
DESCRIPTION
 72
     5
 11
4.324670
 21
-3.298549
  0
TEXT
  8
Layer0$C$L0
 10
6.430463
 20
-2.269730
 40
4.687500E-02
  1
SPECIFIED: .XXXX%%p.0005;, .XXX%%p.005;, .XX%%p.01;,
 72
     5
 11
8.574179
 21
-2.269730
  0
TEXT
  8
Layer0$C$L0
 10
6.430463
 20
-2.340042
 40
4.687500E-02
  1
.X%%p.02;  X/X%%p1/32
 72
     5
 11
7.214804
 21
-2.340042
  0
LINE
  8
Layer0$C$L0
 10
8.801431
 20
6.261382
 11
8.801431
 21
-3.551118
  0
LINE
  8
Layer0$C$L0
 10
8.799431
 20
-3.551118
 11
-6.512569
 21
-3.551118
  0
LINE
  8
Layer0$C$L0
 10
-6.512569
 20
6.261382
 11
-6.512569
 21
-3.551118
  0
LINE
  8
Layer0$C$L0
 10
-6.512569
 20
6.261382
 11
8.801431
 21
6.261382
  0
INSERT
  8
Layer0$C$L0
  2
*X0
 10
0.000000
 20
0.000000
  0
INSERT
  8
Layer0$C$L0
  2
*X1
 10
0.000000
 20
0.000000
  0
INSERT
  8
Layer0$C$L0
  2
*X2
 10
0.000000
 20
0.000000
  0
INSERT
  8
Layer0$C$L0
  2
*X3
 10
0.000000
 20
0.000000
  0
INSERT
  8
Layer0$C$L0
  2
*X4
 10
0.000000
 20
0.000000
  0
INSERT
  8
Layer0$C$L0
  2
*X5
 10
0.000000
 20
0.000000
  0
INSERT
  8
Layer0$C$L0
  2
*X6
 10
0.000000
 20
0.000000
  0
TEXT
  8
Layer0$C$L0
 10
5.8257978814
 20
5.4862736841
 40
0.1250000000
  1
P266C WAS 1/4-20 STUD
 41
0.8691505231
 72
     5
 11
7.9986741892
 21
5.4862736841
  0
TEXT
  8
Layer0$C$L0
 10
5.8257978814
 20
5.2982736905
 40
0.1250000000
  1
STUD 3/8-16 WAS 2.88
 41
0.8707741838
 72
     5
 11
7.8938865680
 21
5.2982736905
  0
TEXT
  8
Layer0$C$L0
 10
8.5084496855
 20
5.6988817215
 40
0.1250000075
  1
AE
 72
     5
 11
8.7254499186
 21
5.6988817215
  0
TEXT
  8
Layer0$C$L0
 10
8.1148420247
 20
5.6922314595
 40
0.1250000037
  1
KS
 72
     5
 11
8.3318422514
 21
5.6922314595
  0
TEXT
  8
Layer0$C$L0
 10
7.0572604172
 20
-3.5046570999
 40
0.1250000037
  1
31B0515    B
 72
     5
 11
8.5242606811
 21
-3.5046570999
  0
TEXT
  8
Layer0$C$L0
 10
3.5734750064
 20
1.9852841832
 40
0.1250000000
  1
P266L      3/8-16     3.00    4.28
 72
     5
 11
7.7904752347
 21
1.9852841832
  0
TEXT
  8
Layer0$C$L0
 10
3.5734750064
 20
2.5477841832
 40
0.1250000000
  1
P266F      3/8-16     3.00    4.72
 72
     5
 11
7.7904752347
 21
2.5477841832
  0
TEXT
  8
Layer0$C$L0
 10
3.5734750064
 20
2.8290341832
 40
0.1250000000
  1
P266C      3/8-16     3.00    2.91
 72
     5
 11
7.7904752347
 21
2.8290341832
  0
TEXT
  8
Layer0$C$L0
 10
3.5734750064
 20
3.1102841832
 40
0.1250000000
  1
P266A      3/8-16     3.00    3.69
 72
     5
 11
7.7904752347
 21
3.1102841832
  0
TEXT
  8
Layer0$C$L0
 10
8.1134318709
 20
5.4993818738
 40
0.1250000000
  1
CRP
 41
1.1820278126
 72
     5
 11
8.4089388241
 21
5.4993818738
  0
TEXT
  8
Layer0$C$L0
 10
5.4585740473
 20
5.4993818738
 40
0.1250000000
  1
9655
 41
0.8354204596
 72
     5
 11
5.7718567197
 21
5.4993818738
  0
TEXT
  8
Layer0$C$L0
 10
4.8328284979
 20
5.4993818738
 40
0.1250000000
  1
12/10/98
 41
0.6522325858
 72
     5
 11
5.4035320105
 21
5.4993818738
  0
TEXT
  8
Layer0$C$L0
 10
4.4884318709
 20
5.4993818738
 40
0.1250000000
  1
B
 72
     5
 11
4.5804320992
 21
5.4993818738
  0
TEXT
  8
Layer0$C$L0
 10
4.4941787764
 20
5.7066341794
 40
0.1250000000
  1
01
 72
     5
 11
4.7111790031
 21
5.7066341794
  0
TEXT
  8
Layer0$C$L0
 10
5.4407583181
 20
5.6978384412
 40
0.1250000000
  1
1688
 41
0.8253467331
 72
     5
 11
5.7502633431
 21
5.6978384412
  0
TEXT
  8
Layer0$C$L0
 10
4.8629280661
 20
5.7007934010
 40
0.1250000000
  1
5/1/95
 41
0.8324874393
 72
     5
 11
5.3832327157
 21
5.7007934010
  0
TEXT
  8
Layer0$C$L0
 10
5.8698587509
 20
5.7121931470
 40
0.1250000000
  1
REV "B" DIM TO REF
 41
0.9966519614
 72
     5
 11
7.9877441689
 21
5.7121931470
  0
TEXT
  8
Layer0$C$L0
 10
8.1105656668
 20
5.8889265060
 40
0.1250000000
  1
GO
 72
     5
 11
8.3275658935
 21
5.8889265060
  0
DIMENSION
  8
Layer0$C$L0
  2
*D0
  1
<>1/2 REF
 10
-2.9629554749
 20
0.1473717950
 11
-2.9629554749
 21
-0.1190344592
  3
DIM1
100
AcDbAlignedDimension
 13
-4.8848440647
 23
-0.4487801939
 14
-3.8297719955
 24
0.1473717950
 50
90.0000000000
100
AcDbRotatedDimension
  0
DIMENSION
  8
Layer0$C$L0
  2
*D1
 70
     1
  1
<>"B" REF
 10
-1.3688347936
 20
0.9984191656
 11
-2.6344595253
 21
0.9984191656
  3
DIM1
100
AcDbAlignedDimension
 13
-3.9000842571
 23
0.7512143254
 14
-1.3688347936
 24
0.7512143254
  0
TEXT
  8
Layer0$C$L0
 10
-5.1849984382
 20
-2.5024629176
 40
0.1250000000
  1
NOTE
 72
     5
 11
-4.7184231212
 21
-2.5024629176
  0
TEXT
  8
Layer0$C$L0
 10
-5.1849984382
 20
-2.6899629176
 40
0.1250000000
  1
1. MUST WITHSTAND FOR 1 SECOND, WITHOUT BREAKDOWN, THE APPLICATION
 72
     5
 11
3.0315768788
 21
-2.6899629176
  0
TEXT
  8
Layer0$C$L0
 10
-5.1849984382
 20
-2.8774629176
 40
0.1250000000
  1
OF 3600V AC BETWEEN LIVE PARTS AND EXPOSED NON-CURRENT-CARRYING-
 72
     5
 11
2.7815768788
 21
-2.8774629176
  0
TEXT
  8
Layer0$C$L0
 10
-5.1849984382
 20
-3.0649629176
 40
0.1250000000
  1
METAL PARTS.
 72
     5
 11
-3.7184231212
 21
-3.0649629176
  0
TEXT
  8
Layer0$C$L0
 10
5.8799317962
 20
5.8993797060
 40
0.1250000037
  1
RELEASED
 72
     5
 11
6.8469320489
 21
5.8993797060
  0
TEXT
  8
Layer0$C$L0
 10
4.8741194494
 20
5.8993797060
 40
0.1250000037
  1
4/11/95
 41
0.7271944143
 72
     5
 11
5.4195152763
 21
5.8993797060
  0
TEXT
  8
Layer0$C$L0
 10
4.5049312783
 20
5.8993797060
 40
0.1250000037
  1
00
 72
     5
 11
4.7219315088
 21
5.8993797060
  0
TEXT
  8
Layer0$C$L0
 10
3.5734750077
 20
0.8602841832
 40
0.1250000000
  1
P296       1/4-20     2.38    4.63
 72
     5
 11
7.7904752344
 21
0.8602841832
  0
TEXT
  8
Layer0$C$L0
 10
3.5734750077
 20
3.3915341832
 40
0.1250000000
  1
P243HL     5/16-18    2.88    2.57
 72
     5
 11
7.7904752344
 21
3.3915341832
  0
CIRCLE
  5
7
100
AcDbEntity
  8
Layer0$C$L0
100
AcDbCircle
 10
3.8437435627
 20
4.3389417231E-02
 40
0.1870000064
  0
TEXT
  8
Layer0$C$L0
 10
3.7866005637
 20
-3.4610584378E-02
 40
0.1560000032
  1
1
 72
     5
 11
3.9008865641
 21
-3.4610584378E-02
  0
CIRCLE
  5
8
100
AcDbEntity
  8
Layer0$C$L0
100
AcDbCircle
 10
0.7629497647
 20
-1.0292649269
 40
0.1870000064
  0
TEXT
  8
Layer0$C$L0
 10
0.7058067657
 20
-1.1072649285
 40
0.1560000032
  1
5
 72
     5
 11
0.8200927661
 21
-1.1072649285
  0
CIRCLE
  5
9
100
AcDbEntity
  8
Layer0$C$L0
100
AcDbCircle
 10
1.5844570398
 20
-0.2253526449
 40
0.1870000064
  0
TEXT
  8
Layer0$C$L0
 10
1.5273140408
 20
-0.3033526465
 40
0.1560000032
  1
1
 72
     5
 11
1.6416000412
 21
-0.3033526465
  0
CIRCLE
  5
a
100
AcDbEntity
  8
Layer0$C$L0
100
AcDbCircle
 10
1.4774698019
 20
0.2453912646
 40
0.1870000064
  0
TEXT
  8
Layer0$C$L0
 10
1.4203268029
 20
0.1673912629
 40
0.1560000032
  1
3
 72
     5
 11
1.5346128033
 21
0.1673912629
  0
CIRCLE
  5
b
100
AcDbEntity
  8
Layer0$C$L0
100
AcDbCircle
 10
1.4881685972
 20
0.7268339396
 40
0.1870000064
  0
TEXT
  8
Layer0$C$L0
 10
1.4310255982
 20
0.6488339379
 40
0.1560000032
  1
2
 72
     5
 11
1.5453115986
 21
0.6488339379
  0
CIRCLE
  5
c
100
AcDbEntity
  8
Layer0$C$L0
100
AcDbCircle
 10
7.9685434699E-02
 20
-7.9209849238E-02
 40
0.1870000064
  0
TEXT
  8
Layer0$C$L0
 10
2.2542435676E-02
 20
-0.1572098508
 40
0.1560000032
  1
3
 72
     5
 11
0.1368284361
 21
-0.1572098508
  0
CIRCLE
  5
d
100
AcDbEntity
  8
Layer0$C$L0
100
AcDbCircle
 10
-4.2105957866E-02
 20
0.4559285045
 40
0.1870000064
  0
TEXT
  8
Layer0$C$L0
 10
-9.9248956889E-02
 20
0.3779285029
 40
0.1560000032
  1
2
 72
     5
 11
1.5037043515E-02
 21
0.3779285029
  0
CIRCLE
  5
e
100
AcDbEntity
  8
Layer0$C$L0
100
AcDbCircle
 10
0.8844751120
 20
1.7514261007
 40
0.1870000064
  0
TEXT
  8
Layer0$C$L0
 10
0.8273321129
 20
1.6734260991
 40
0.1560000032
  1
4
 72
     5
 11
0.9416181133
 21
1.6734260991
  0
TEXT
  8
Layer0$C$L0
 10
6.2566838127
 20
4.2875442505
 40
0.1250000000
  1
"A" %%p .125
 41
0.5285009617
 72
     5
 11
6.9833726350
 21
4.2875442505
  0
TEXT
  8
Layer0$C$L0
 10
3.3308229692
 20
4.2850348990
 40
0.1250000186
  1
GOULD P/N   STUD SIZE           "B"
 72
     5
 11
7.6728238292
 21
4.2850348990
  0
TEXT
  8
Layer0$C$L0
 10
7.5082798972
 20
0.2552734213
 40
0.1250000037
  1
P/N P243
 72
     5
 11
8.4752801500
 21
0.2552734213
  0
TEXT
  8
Layer0$C$L0
 10
7.5082798972
 20
6.7273407252E-02
 40
0.1250000037
  1
    P243H
 72
     5
 11
8.6002801537
 21
6.7273407252E-02
  0
TEXT
  8
Layer0$C$L0
 10
7.5082798972
 20
-0.1207266068
 40
0.1250000037
  1
    P243HL
 72
     5
 11
8.7252801574
 21
-0.1207266068
  0
TEXT
  8
Layer0$C$L0
 10
7.5082798972
 20
-0.3087266209
 40
0.1250000037
  1
    P266A
 72
     5
 11
8.6002801537
 21
-0.3087266209
  0
TEXT
  8
Layer0$C$L0
 10
7.5082798972
 20
-0.4967266349
 40
0.1250000037
  1
    P266C
 72
     5
 11
8.6002801537
 21
-0.4967266349
  0
TEXT
  8
Layer0$C$L0
 10
7.5082798972
 20
-0.6847266490
 40
0.1250000037
  1
    P266F
 72
     5
 11
8.6002801537
 21
-0.6847266490
  0
TEXT
  8
Layer0$C$L0
 10
7.5082798972
 20
-0.8727266631
 40
0.1250000037
  1
    P266G
 72
     5
 11
8.6002801537
 21
-0.8727266631
  0
TEXT
  8
Layer0$C$L0
 10
7.5082798972
 20
-1.0607266771
 40
0.1250000037
  1
    P266L
 72
     5
 11
8.6002801537
 21
-1.0607266771
  0
TEXT
  8
Layer0$C$L0
 10
7.5082798972
 20
-1.2487266912
 40
0.1250000037
  1
    P266H
 72
     5
 11
8.6002801537
 21
-1.2487266912
  0
TEXT
  8
Layer0$C$L0
 10
7.5082798972
 20
-1.4367267053
 40
0.1250000037
  1
    P266J
 72
     5
 11
8.6002801537
 21
-1.4367267053
  0
TEXT
  8
Layer0$C$L0
 10
7.5082798972
 20
-1.6247267193
 40
0.1250000037
  1
    P288
 72
     5
 11
8.4752801500
 21
-1.6247267193
  0
TEXT
  8
Layer0$C$L0
 10
7.5082798972
 20
-1.8127267334
 40
0.1250000037
  1
    P296
 72
     5
 11
8.4752801500
 21
-1.8127267334
  0
POLYLINE
  8
Layer0$C$L0
 10
0.0000000000
 20
0.0000000000
 30
0.0000000000
 66
     1
 70
     0
  0
VERTEX
  8
Layer0$C$L0
 10
-1.2041088343
 20
-1.1050301939
  0
VERTEX
  8
Layer0$C$L0
 10
-1.3024643553
 20
-1.6713385427
  0
VERTEX
  8
Layer0$C$L0
 10
-1.1144643617
 20
-1.6713385427
  0
SEQEND
  8
Layer0$C$L0
  0
SOLID
  8
Layer0$C$L0
 10
-1.2602753337
 20
-1.2505682326
 11
-1.2003049173
 21
-1.2609837978
 12
-1.2041088343
 22
-1.1050301939
 13
-1.2041088343
 23
-1.1050301939
  0
TEXT
  8
Layer0$C$L0
 10
-1.0516743616
 20
-1.7338385427
 40
0.1250000000
  1
"MEXICO"
 72
     5
 11
-8.4674134876E-02
 21
-1.7338385427
  0
TEXT
  8
Layer0$C$L0
 10
-1.0516743616
 20
-1.9218385362
 40
0.1250000000
  1
LABEL
 72
     5
 11
-0.4596741349
 21
-1.9218385362
  0
DIMENSION
  8
Layer0$C$L0
  2
*D2
  1
<>"A" %%p .125
 10
-5.5719599724
 20
0.7699640393
 11
-5.5719599724
 21
-0.1675330773
  3
DIM1
100
AcDbAlignedDimension
 13
-4.8848438859
 23
-1.1050301939
 14
-4.0688345432
 24
0.7699640393
 50
-90.0000000000
100
AcDbRotatedDimension
  0
TEXT
  8
Layer0$C$L0
 10
4.1230073019
 20
-4.4198460877E-02
 40
0.1250000000
  1
TORQUE 18-22 IN-LBS.
 72
     5
 11
6.5900075286
 21
-4.4198460877E-02
  0
TEXT
  8
Layer0$C$L0
 10
3.5734750077
 20
1.1415341832
 40
0.1250000000
  1
P288       1/4-20     2.38    5.25
 72
     5
 11
7.7904752344
 21
1.1415341832
  0
TEXT
  8
Layer0$C$L0
 10
3.5734750077
 20
1.4227841832
 40
0.1250000000
  1
P266J      1/4-20     2.38    3.90
 72
     5
 11
7.7904752344
 21
1.4227841832
  0
TEXT
  8
Layer0$C$L0
 10
3.5734750077
 20
1.7040341832
 40
0.1250000000
  1
P266H      1/4-20     2.38    4.28
 72
     5
 11
7.7904752344
 21
1.7040341832
  0
TEXT
  8
Layer0$C$L0
 10
3.5734750077
 20
2.2665341832
 40
0.1250000000
  1
P266G      1/4-20     2.38    4.00
 72
     5
 11
7.7904752344
 21
2.2665341832
  0
TEXT
  8
Layer0$C$L0
 10
3.5734750077
 20
3.9540341832
 40
0.1250000000
  1
P243       1/4-20     2.38    2.13
 72
     5
 11
7.7904752344
 21
3.9540341832
  0
TEXT
  8
Layer0$C$L0
 10
3.5734750077
 20
3.6727841832
 40
0.1250000000
  1
P243H      5/16-18    2.38    2.57
 72
     5
 11
7.7904752344
 21
3.6727841832
  0
LINE
  8
Layer0$C$L0
 10
3.2347202897
 20
0.7671591832
 11
8.0065541267
 21
0.7671591832
  0
LINE
  8
Layer0$C$L0
 10
3.2347202897
 20
1.0484091832
 11
8.0065541267
 21
1.0484091832
  0
LINE
  8
Layer0$C$L0
 10
3.2347202897
 20
1.3296591832
 11
8.0065541267
 21
1.3296591832
  0
LINE
  8
Layer0$C$L0
 10
3.2347202897
 20
1.6109091832
 11
8.0065541267
 21
1.6109091832
  0
POLYLINE
  8
Layer0$C$L0
 10
0.0000000000
 20
0.0000000000
 30
0.0000000000
 66
     1
 70
     0
  0
VERTEX
  8
Layer0$C$L0
 10
2.7974670902
 20
-0.2894445360
  0
VERTEX
  8
Layer0$C$L0
 10
3.5317435563
 20
4.3389417231E-02
  0
VERTEX
  8
Layer0$C$L0
 10
3.6567435563
 20
4.3389417231E-02
  0
SEQEND
  8
Layer0$C$L0
  0
SOLID
  8
Layer0$C$L0
 10
2.9493863779
 20
-0.2539970204
 11
2.9242570338
 21
-0.1985583073
 12
2.7974670902
 22
-0.2894445360
 13
2.7974670902
 23
-0.2894445360
  0
POLYLINE
  8
Layer0$C$L0
 10
0.0000000000
 20
0.0000000000
 30
0.0000000000
 66
     1
 70
     0
  0
VERTEX
  8
Layer0$C$L0
 10
2.7974670902
 20
0.4900875986
  0
VERTEX
  8
Layer0$C$L0
 10
3.5317435563
 20
4.3389417231E-02
  0
VERTEX
  8
Layer0$C$L0
 10
3.6567435563
 20
4.3389417231E-02
  0
SEQEND
  8
Layer0$C$L0
  0
SOLID
  8
Layer0$C$L0
 10
2.9123639932
 20
0.3845665199
 11
2.9439991558
 21
0.4365679750
 12
2.7974670902
 22
0.4900875986
 13
2.7974670902
 23
0.4900875986
  0
POLYLINE
  8
Layer0$C$L0
 10
0.0000000000
 20
0.0000000000
 30
0.0000000000
 66
     1
 70
     0
  0
VERTEX
  8
Layer0$C$L0
 10
2.4263837337
 20
0.4114958048
  0
VERTEX
  8
Layer0$C$L0
 10
1.8001686037
 20
0.7268339396
  0
VERTEX
  8
Layer0$C$L0
 10
1.6751686037
 20
0.7268339396
  0
SEQEND
  8
Layer0$C$L0
  0
SOLID
  8
Layer0$C$L0
 10
2.3034173437
 20
0.5074919676
 11
2.2760414617
 21
0.4531274947
 12
2.4263837337
 22
0.4114958048
 13
2.4263837337
 23
0.4114958048
  0
POLYLINE
  8
Layer0$C$L0
 10
0.0000000000
 20
0.0000000000
 30
0.0000000000
 66
     1
 70
     0
  0
VERTEX
  8
Layer0$C$L0
 10
2.4185806736
 20
0.3309810758
  0
VERTEX
  8
Layer0$C$L0
 10
1.7894698083
 20
0.2453912646
  0
VERTEX
  8
Layer0$C$L0
 10
1.6644698083
 20
0.2453912646
  0
SEQEND
  8
Layer0$C$L0
  0
SOLID
  8
Layer0$C$L0
 10
2.2628720793
 20
0.3405115535
 11
2.2710775344
 21
0.2801989897
 12
2.4185806736
 22
0.3309810758
 13
2.4185806736
 23
0.3309810758
  0
POLYLINE
  8
Layer0$C$L0
 10
0.0000000000
 20
0.0000000000
 30
0.0000000000
 66
     1
 70
     0
  0
VERTEX
  8
Layer0$C$L0
 10
2.4185806736
 20
0.1918976456
  0
VERTEX
  8
Layer0$C$L0
 10
1.8964570463
 20
-0.2253526449
  0
VERTEX
  8
Layer0$C$L0
 10
1.7714570463
 20
-0.2253526449
  0
SEQEND
  8
Layer0$C$L0
  0
SOLID
  8
Layer0$C$L0
 10
2.2800561547
 20
0.1201553708
 11
2.3180552858
 21
7.2605387881E-02
 12
2.4185806736
 22
0.1918976456
 13
2.4185806736
 23
0.1918976456
  0
POLYLINE
  8
Layer0$C$L0
 10
0.0000000000
 20
0.0000000000
 30
0.0000000000
 66
     1
 70
     0
  0
VERTEX
  8
Layer0$C$L0
 10
-2.4846272469
 20
-0.9644051939
  0
VERTEX
  8
Layer0$C$L0
 10
-3.0236555848
 20
-2.0264134407
  0
VERTEX
  8
Layer0$C$L0
 10
-3.1486555848
 20
-2.0264134407
  0
SEQEND
  8
Layer0$C$L0
  0
SOLID
  8
Layer0$C$L0
 10
-2.5810140483
 20
-1.0870656230
 11
-2.5267369259
 21
-1.1146142858
 12
-2.4846272469
 22
-0.9644051939
 13
-2.4846272469
 23
-0.9644051939
  0
TEXT
  8
Layer0$C$L0
 10
-3.8034458116
 20
-2.0889134407
 40
0.1250000000
  1
LABEL
 72
     5
 11
-3.2114455849
 21
-2.0889134407
  0
POLYLINE
  8
Layer0$C$L0
 10
0.0000000000
 20
0.0000000000
 30
0.0000000000
 66
     1
 70
     0
  0
VERTEX
  8
Layer0$C$L0
 10
1.8580242097
 20
-0.7677282691
  0
VERTEX
  8
Layer0$C$L0
 10
1.0749497712
 20
-1.0292649269
  0
VERTEX
  8
Layer0$C$L0
 10
0.9499497712
 20
-1.0292649269
  0
SEQEND
  8
Layer0$C$L0
  0
SOLID
  8
Layer0$C$L0
 10
1.7032606996
 20
-0.7873306230
 11
1.7225428664
 21
-0.8450639139
 12
1.8580242097
 22
-0.7677282691
 13
1.8580242097
 23
-0.7677282691
  0
POLYLINE
  8
Layer0$C$L0
 10
0.0000000000
 20
0.0000000000
 30
0.0000000000
 66
     1
 70
     0
  0
VERTEX
  8
Layer0$C$L0
 10
-0.3848438859
 20
-0.8113177419
  0
VERTEX
  8
Layer0$C$L0
 10
0.4509497583
 20
-1.0292649269
  0
VERTEX
  8
Layer0$C$L0
 10
0.5759497583
 20
-1.0292649269
  0
SEQEND
  8
Layer0$C$L0
  0
SOLID
  8
Layer0$C$L0
 10
-0.2444717091
 20
-0.8793739564
 11
-0.2291129191
 21
-0.8204753792
 12
-0.3848438859
 22
-0.8113177419
 13
-0.3848438859
 23
-0.8113177419
  0
POLYLINE
  8
Layer0$C$L0
 10
0.0000000000
 20
0.0000000000
 30
0.0000000000
 66
     1
 70
     0
  0
VERTEX
  8
Layer0$C$L0
 10
-1.0641472340
 20
-0.4290021360
  0
VERTEX
  8
Layer0$C$L0
 10
-0.2323145717
 20
-7.9209849238E-02
  0
VERTEX
  8
Layer0$C$L0
 10
-0.1073145717
 20
-7.9209849238E-02
  0
SEQEND
  8
Layer0$C$L0
  0
SOLID
  8
Layer0$C$L0
 10
-0.9113100859
 20
-0.3977482957
 11
-0.9349044480
 21
-0.3416391082
 12
-1.0641472340
 22
-0.4290021360
 13
-1.0641472340
 23
-0.4290021360
  0
POLYLINE
  8
Layer0$C$L0
 10
0.0000000000
 20
0.0000000000
 30
0.0000000000
 66
     1
 70
     0
  0
VERTEX
  8
Layer0$C$L0
 10
-1.0934442426
 20
-0.3969535530
  0
VERTEX
  8
Layer0$C$L0
 10
-0.3541059643
 20
0.4559285045
  0
VERTEX
  8
Layer0$C$L0
 10
-0.2291059643
 20
0.4559285045
  0
SEQEND
  8
Layer0$C$L0
  0
SOLID
  8
Layer0$C$L0
 10
-0.9702283945
 20
-0.3012777926
 11
-1.0162211708
 21
-0.2614080125
 12
-1.0934442426
 22
-0.3969535530
 13
-1.0934442426
 23
-0.3969535530
  0
POLYLINE
  8
Layer0$C$L0
 10
0.0000000000
 20
0.0000000000
 30
0.0000000000
 66
     1
 70
     0
  0
VERTEX
  8
Layer0$C$L0
 10
2.5832071304
 20
0.7699640393
  0
VERTEX
  8
Layer0$C$L0
 10
1.1964751184
 20
1.7514261007
  0
VERTEX
  8
Layer0$C$L0
 10
1.0714751184
 20
1.7514261007
  0
SEQEND
  8
Layer0$C$L0
  0
SOLID
  8
Layer0$C$L0
 10
2.4759009128
 20
0.8831955368
 11
2.4407372942
 21
0.8335119906
 12
2.5832071304
 22
0.7699640393
 13
2.5832071304
 23
0.7699640393
  0
POLYLINE
  8
Layer0$C$L0
 10
0.0000000000
 20
0.0000000000
 30
0.0000000000
 66
     1
 70
     0
  0
VERTEX
  8
Layer0$C$L0
 10
-1.2432296276
 20
0.7699640393
  0
VERTEX
  8
Layer0$C$L0
 10
0.5724751055
 20
1.7514261007
  0
VERTEX
  8
Layer0$C$L0
 10
0.6974751055
 20
1.7514261007
  0
SEQEND
  8
Layer0$C$L0
  0
SOLID
  8
Layer0$C$L0
 10
-1.0941604122
 20
0.8159462681
 11
-1.1231042676
 21
0.8694923983
 12
-1.2432296276
 22
0.7699640393
 13
-1.2432296276
 23
0.7699640393
  0
CIRCLE
  5
f
100
AcDbEntity
  8
Layer0$C$L0
100
AcDbCircle
 10
-2.3494698071
 20
4.4192433357
 40
7.5375000000E-02
  0
CIRCLE
  5
10
100
AcDbEntity
  8
Layer0$C$L0
100
AcDbCircle
 10
-2.9194698071
 20
4.4192433357
 40
7.5375000000E-02
  0
CIRCLE
  5
11
100
AcDbEntity
  8
Layer0$C$L0
100
AcDbCircle
 10
-2.9194698071
 20
4.4192433357
 40
0.1875000000
  0
CIRCLE
  5
12
100
AcDbEntity
  8
Layer0$C$L0
100
AcDbCircle
 10
-2.3494698071
 20
4.4192433357
 40
0.1875000000
  0
LINE
  8
Layer0$C$L0
 10
3.2347202897
 20
1.8921591832
 11
8.0065541267
 21
1.8921591832
  0
LINE
  8
Layer0$C$L0
 10
3.2347202897
 20
2.1771591832
 11
8.0065541267
 21
2.1771591832
  0
LINE
  8
Layer0$C$L0
 10
3.2347202897
 20
2.4621591832
 11
8.0065541267
 21
2.4621591832
  0
LINE
  8
Layer0$C$L0
 10
3.2347202897
 20
2.7471591832
 11
8.0065541267
 21
2.7471591832
  0
LINE
  8
Layer0$C$L0
 10
1.8580242097
 20
-0.4487801939
 11
1.8580242097
 21
-1.1050301939
  0
LINE
  8
Layer0$C$L0
 10
3.3580242097
 20
-0.4487801939
 11
3.3580242097
 21
-1.1050301939
  0
LINE
  8
Layer0$C$L0
 10
1.8580242097
 20
-1.1050301939
 11
3.3580242097
 21
-1.1050301939
  0
ARC
  8
Layer0$C$L0
 10
-3.6660938859
 20
-0.6831551939
 40
9.3750000000E-02
100
AcDbArc
 50
90.0000000000
 51
180.0000000000
  0
ARC
  8
Layer0$C$L0
 10
-3.6660938859
 20
-0.8706551939
 40
9.3750000000E-02
100
AcDbArc
 50
180.0000000000
 51
270.0000000000
  0
ARC
  8
Layer0$C$L0
 10
-1.6035938859
 20
-0.8706551939
 40
9.3750000000E-02
100
AcDbArc
 50
270.0000000000
 51
360.0000000000
  0
ARC
  8
Layer0$C$L0
 10
-1.6035938859
 20
-0.6831551939
 40
9.3750000000E-02
100
AcDbArc
 50
0.0000000000
 51
90.0000000000
  0
LINE
  8
Layer0$C$L0
 10
-3.6660938859
 20
-0.9644051939
 11
-1.6035938859
 21
-0.9644051939
  0
LINE
  8
Layer0$C$L0
 10
-3.6660938859
 20
-0.5894051939
 11
-1.6035938859
 21
-0.5894051939
  0
LINE
  8
Layer0$C$L0
 10
-3.7598438859
 20
-0.6831551939
 11
-3.7598438859
 21
-0.8706551939
  0
LINE
  8
Layer0$C$L0
 10
-1.5098438859
 20
-0.6831551939
 11
-1.5098438859
 21
-0.8706551939
  0
LINE
  8
Layer0$C$L0
 10
-4.8848438859
 20
-1.1050301939
 11
-0.3848438859
 21
-1.1050301939
  0
LINE
  8
Layer0$C$L0
 10
-4.8848438859
 20
-0.4487801939
 11
-4.8848438859
 21
-1.1050301939
  0
LINE
  8
Layer0$C$L0
 10
-0.3848438859
 20
-0.4487801939
 11
-0.3848438859
 21
-1.1050301939
  0
LINE
  8
Layer0$C$L0
 10
-4.8844698071
 20
3.6692433357
 11
-0.3844698071
 21
3.6692433357
  0
LINE
  8
Layer0$C$L0
 10
-4.8844698071
 20
5.1692433357
 11
-0.3844698071
 21
5.1692433357
  0
LINE
  8
Layer0$C$L0
 10
-4.8844698071
 20
5.1692433357
 11
-4.8844698071
 21
3.6692433357
  0
LINE
  8
Layer0$C$L0
 10
-0.3844698071
 20
5.1692433357
 11
-0.3844698071
 21
3.6692433357
  0
TEXT
  8
Layer0$C$L0
 10
3.9182603843
 20
-3.5046570952
 40
0.1250000037
  1
PANEL ASSEMBLY, FORM 101
 72
     5
 11
6.8852606994
 21
-3.5046570952
  0
TEXT
  8
Layer0$C$L0
 10
4.1719606482
 20
-2.8385384535
 40
0.1250000037
  1
CEP    4/95
 72
     5
 11
5.5139609149
 21
-2.8385384535
  0
LINE
  8
Layer0$C$L0
 10
3.2347202897
 20
3.3134091832
 11
8.0065541267
 21
3.3134091832
  0
TEXT
  8
Layer0$C$L0
 10
6.4616473013
 20
4.6114385655
 40
0.1250000186
  1
DIMENSIONS
 72
     5
 11
7.6786477094
 21
4.6114385655
  0
LINE
  8
Layer0$C$L0
 10
3.2347202897
 20
4.8134091832
 11
8.0065541267
 21
4.8134091832
  0
LINE
  8
Layer0$C$L0
 10
3.2347202897
 20
3.0321591832
 11
8.0065541267
 21
3.0321591832
  0
LINE
  8
Layer0$C$L0
 10
3.2347202897
 20
3.5946591832
 11
8.0065541267
 21
3.5946591832
  0
LINE
  8
Layer0$C$L0
 10
3.2347202897
 20
3.8759091832
 11
8.0065541267
 21
3.8759091832
  0
LINE
  8
Layer0$C$L0
 10
8.0065541267
 20
4.8134091832
 11
8.0065541267
 21
0.7671591832
  0
LINE
  8
Layer0$C$L0
 10
7.0690541267
 20
4.5321591832
 11
7.0690541267
 21
0.7671591832
  0
LINE
  8
Layer0$C$L0
 10
3.2347202897
 20
4.1571591832
 11
8.0065541267
 21
4.1571591832
  0
LINE
  8
Layer0$C$L0
 10
6.1315541267
 20
4.8134091832
 11
6.1315541267
 21
0.7671591832
  0
LINE
  8
Layer0$C$L0
 10
4.6350855231
 20
4.8134091832
 11
4.6350855231
 21
0.7671591832
  0
LINE
  8
Layer0$C$L0
 10
3.2347202897
 20
4.8134091832
 11
3.2347202897
 21
0.7671591832
  0
LINE
  8
Layer0$C$L0
 10
6.1315541267
 20
4.5321591832
 11
8.0065541267
 21
4.5321591832
  0
LINE
  8
Layer0$C$L0
  6
DASHED
 10
2.533024
 20
0.147371
 11
2.533024
 21
-0.240355
  0
LINE
  8
Layer0$C$L0
  6
DASHED
 10
2.683025
 20
0.147371
 11
2.683025
 21
-0.240355
  0
LINE
  8
Layer0$C$L0
 10
2.514274
 20
0.147371
 11
2.514274
 21
-0.240355
  0
LINE
  8
Layer0$C$L0
 10
2.701774
 20
0.564222
 11
2.701774
 21
0.751214
  0
LINE
  8
Layer0$C$L0
 10
2.701774
 20
-0.240355
 11
2.701774
 21
0.147371
  0
LINE
  8
Layer0$C$L0
 10
2.701774
 20
0.751214
 11
2.683025
 21
0.769964
  0
LINE
  8
Layer0$C$L0
 10
2.683025
 20
0.769964
 11
2.533024
 21
0.769964
  0
LINE
  8
Layer0$C$L0
 10
2.533024
 20
0.769964
 11
2.514274
 21
0.751214
  0
LINE
  8
Layer0$C$L0
 10
2.514274
 20
0.751214
 11
2.514274
 21
0.564222
  0
LINE
  8
Layer0$C$L0
  6
DASHED
 10
2.683025
 20
0.769964
 11
2.683025
 21
0.564222
  0
LINE
  8
Layer0$C$L0
  6
DASHED
 10
2.533024
 20
0.769964
 11
2.533024
 21
0.564222
  0
CIRCLE
  5
13
100
AcDbEntity
  8
Layer0$C$L0
100
AcDbCircle
 10
-1.275085
 20
4.419239
 40
0.210938
  0
CIRCLE
  5
14
100
AcDbEntity
  8
Layer0$C$L0
100
AcDbCircle
 10
-3.993834
 20
4.419243
 40
0.210938
  0
LINE
  8
Layer0$C$L0
  6
DASHED
 10
-1.350085
 20
0.769964
 11
-1.350085
 21
0.564222
  0
LINE
  8
Layer0$C$L0
  6
DASHED
 10
-1.200085
 20
0.769964
 11
-1.200085
 21
0.564222
  0
LINE
  8
Layer0$C$L0
 10
-1.368835
 20
0.751214
 11
-1.368835
 21
0.564222
  0
LINE
  8
Layer0$C$L0
 10
-1.350085
 20
0.769964
 11
-1.368835
 21
0.751214
  0
LINE
  8
Layer0$C$L0
 10
-1.200085
 20
0.769964
 11
-1.350085
 21
0.769964
  0
LINE
  8
Layer0$C$L0
 10
-1.181335
 20
0.751214
 11
-1.200085
 21
0.769964
  0
LINE
  8
Layer0$C$L0
 10
-1.181335
 20
-0.240355
 11
-1.181335
 21
0.147371
  0
LINE
  8
Layer0$C$L0
 10
-1.181335
 20
0.564222
 11
-1.181335
 21
0.751214
  0
LINE
  8
Layer0$C$L0
 10
-1.368835
 20
0.147371
 11
-1.368835
 21
-0.240355
  0
LINE
  8
Layer0$C$L0
  6
DASHED
 10
-1.200085
 20
0.147371
 11
-1.200085
 21
-0.240355
  0
LINE
  8
Layer0$C$L0
  6
DASHED
 10
-1.350085
 20
0.147371
 11
-1.350085
 21
-0.240355
  0
LINE
  8
Layer0$C$L0
  6
DASHED
 10
-3.918834
 20
0.147371
 11
-3.918834
 21
-0.240355
  0
LINE
  8
Layer0$C$L0
  6
DASHED
 10
-4.068835
 20
0.147371
 11
-4.068835
 21
-0.240355
  0
LINE
  8
Layer0$C$L0
 10
-3.900084
 20
0.147371
 11
-3.900084
 21
-0.240355
  0
LINE
  8
Layer0$C$L0
 10
-4.087584
 20
0.564222
 11
-4.087584
 21
0.751214
  0
LINE
  8
Layer0$C$L0
 10
-4.087584
 20
-0.240355
 11
-4.087584
 21
0.147371
  0
LINE
  8
Layer0$C$L0
 10
-4.087584
 20
0.751214
 11
-4.068835
 21
0.769964
  0
LINE
  8
Layer0$C$L0
 10
-4.068835
 20
0.769964
 11
-3.918834
 21
0.769964
  0
LINE
  8
Layer0$C$L0
 10
-3.918834
 20
0.769964
 11
-3.900084
 21
0.751214
  0
LINE
  8
Layer0$C$L0
 10
-3.900084
 20
0.751214
 11
-3.900084
 21
0.564222
  0
LINE
  8
Layer0$C$L0
  6
DASHED
 10
-4.068835
 20
0.769964
 11
-4.068835
 21
0.564222
  0
LINE
  8
Layer0$C$L0
  6
DASHED
 10
-3.918834
 20
0.769964
 11
-3.918834
 21
0.564222
  0
LINE
  8
Layer0$C$L0
 10
3.358024
 20
-0.448780
 11
1.858024
 21
-0.448780
  0
LINE
  8
Layer0$C$L0
 10
-4.884844
 20
-0.448780
 11
-0.384844
 21
-0.448780
  0
ENDSEC
  0
EOF
