  0
SECTION
  2
HEADER
  9
$ACADVER
  1
AC1021
  9
$ACADMAINTVER
 70
    25
  9
$DWGCODEPAGE
  3
ANSI_1252
  9
$INSBASE
 10
0.0
 20
0.0
 30
0.0
  9
$EXTMIN
 10
-14.61176109313965
 20
-0.125
 30
0.0
  9
$EXTMAX
 10
0.6893521994352341
 20
11.16160202026367
 30
0.0
  9
$LIMMIN
 10
0.0
 20
0.0
  9
$LIMMAX
 10
12.0
 20
9.0
  9
$ORTHOMODE
 70
     0
  9
$REGENMODE
 70
     1
  9
$FILLMODE
 70
     1
  9
$QTEXTMODE
 70
     0
  9
$MIRRTEXT
 70
     1
  9
$LTSCALE
 40
1.0
  9
$ATTMODE
 70
     1
  9
$TEXTSIZE
 40
0.25
  9
$TRACEWID
 40
0.05
  9
$TEXTSTYLE
  7
Standard
  9
$CLAYER
  8
0
  9
$CELTYPE
  6
ByLayer
  9
$CECOLOR
 62
   256
  9
$CELTSCALE
 40
1.0
  9
$DISPSILH
 70
     0
  9
$DIMSCALE
 40
1.0
  9
$DIMASZ
 40
0.1538774404644427
  9
$DIMEXO
 40
0.1000000014901161
  9
$DIMDLI
 40
0.38
  9
$DIMRND
 40
0.0
  9
$DIMDLE
 40
0.0
  9
$DIMEXE
 40
0.1500000059604645
  9
$DIMTP
 40
0.0
  9
$DIMTM
 40
0.0
  9
$DIMTXT
 40
0.25
  9
$DIMCEN
 40
0.09
  9
$DIMTSZ
 40
0.0
  9
$DIMTOL
 70
     0
  9
$DIMLIM
 70
     0
  9
$DIMTIH
 70
     0
  9
$DIMTOH
 70
     1
  9
$DIMSE1
 70
     0
  9
$DIMSE2
 70
     0
  9
$DIMTAD
 70
     0
  9
$DIMZIN
 70
     0
  9
$DIMBLK
  1

  9
$DIMASO
 70
     1
  9
$DIMSHO
 70
     1
  9
$DIMPOST
  1

  9
$DIMAPOST
  1

  9
$DIMALT
 70
     0
  9
$DIMALTD
 70
     2
  9
$DIMALTF
 40
25.4
  9
$DIMLFAC
 40
1.0
  9
$DIMTOFL
 70
     0
  9
$DIMTVP
 40
0.0
  9
$DIMTIX
 70
     0
  9
$DIMSOXD
 70
     0
  9
$DIMSAH
 70
     0
  9
$DIMBLK1
  1

  9
$DIMBLK2
  1

  9
$DIMSTYLE
  2
Standard
  9
$DIMCLRD
 70
     0
  9
$DIMCLRE
 70
     0
  9
$DIMCLRT
 70
     0
  9
$DIMTFAC
 40
1.0
  9
$DIMGAP
 40
0.09
  9
$DIMJUST
 70
     0
  9
$DIMSD1
 70
     0
  9
$DIMSD2
 70
     0
  9
$DIMTOLJ
 70
     1
  9
$DIMTZIN
 70
     0
  9
$DIMALTZ
 70
     0
  9
$DIMALTTZ
 70
     0
  9
$DIMUPT
 70
     0
  9
$DIMDEC
 70
     4
  9
$DIMTDEC
 70
     4
  9
$DIMALTU
 70
     2
  9
$DIMALTTD
 70
     2
  9
$DIMTXSTY
  7
Standard
  9
$DIMAUNIT
 70
     0
  9
$DIMADEC
 70
     0
  9
$DIMALTRND
 40
0.0
  9
$DIMAZIN
 70
     0
  9
$DIMDSEP
 70
     0
  9
$DIMATFIT
 70
     3
  9
$DIMFRAC
 70
     0
  9
$DIMLDRBLK
  1

  9
$DIMLUNIT
 70
     2
  9
$DIMLWD
 70
    -2
  9
$DIMLWE
 70
    -2
  9
$DIMTMOVE
 70
     0
  9
$DIMFXL
 40
1.0
  9
$DIMFXLON
 70
     0
  9
$DIMJOGANG
 40
0.7853981633974483
  9
$DIMTFILL
 70
     0
  9
$DIMTFILLCLR
 70
     0
  9
$DIMARCSYM
 70
     0
  9
$DIMLTYPE
  6

  9
$DIMLTEX1
  6

  9
$DIMLTEX2
  6

  9
$LUNITS
 70
     2
  9
$LUPREC
 70
     3
  9
$SKETCHINC
 40
0.1
  9
$FILLETRAD
 40
0.5
  9
$AUNITS
 70
     0
  9
$AUPREC
 70
     0
  9
$MENU
  1
.
  9
$ELEVATION
 40
0.0
  9
$PELEVATION
 40
0.0
  9
$THICKNESS
 40
0.0
  9
$LIMCHECK
 70
     0
  9
$CHAMFERA
 40
0.0
  9
$CHAMFERB
 40
0.0
  9
$CHAMFERC
 40
0.0
  9
$CHAMFERD
 40
0.0
  9
$SKPOLY
 70
     0
  9
$TDCREATE
 40
2456434.377124109
  9
$TDUCREATE
 40
2456434.543790775
  9
$TDUPDATE
 40
2456434.37712412
  9
$TDUUPDATE
 40
2456434.543790787
  9
$TDINDWG
 40
0.0000000116
  9
$TDUSRTIMER
 40
0.0000000116
  9
$USRTIMER
 70
     1
  9
$ANGBASE
 50
0.0
  9
$ANGDIR
 70
     0
  9
$PDMODE
 70
     0
  9
$PDSIZE
 40
0.0
  9
$PLINEWID
 40
0.0
  9
$SPLFRAME
 70
     0
  9
$SPLINETYPE
 70
     6
  9
$SPLINESEGS
 70
     8
  9
$HANDSEED
  5
302
  9
$SURFTAB1
 70
     6
  9
$SURFTAB2
 70
     6
  9
$SURFTYPE
 70
     6
  9
$SURFU
 70
     6
  9
$SURFV
 70
     6
  9
$UCSBASE
  2

  9
$UCSNAME
  2

  9
$UCSORG
 10
0.0
 20
0.0
 30
0.0
  9
$UCSXDIR
 10
1.0
 20
0.0
 30
0.0
  9
$UCSYDIR
 10
0.0
 20
1.0
 30
0.0
  9
$UCSORTHOREF
  2

  9
$UCSORTHOVIEW
 70
     0
  9
$UCSORGTOP
 10
0.0
 20
0.0
 30
0.0
  9
$UCSORGBOTTOM
 10
0.0
 20
0.0
 30
0.0
  9
$UCSORGLEFT
 10
0.0
 20
0.0
 30
0.0
  9
$UCSORGRIGHT
 10
0.0
 20
0.0
 30
0.0
  9
$UCSORGFRONT
 10
0.0
 20
0.0
 30
0.0
  9
$UCSORGBACK
 10
0.0
 20
0.0
 30
0.0
  9
$PUCSBASE
  2

  9
$PUCSNAME
  2

  9
$PUCSORG
 10
0.0
 20
0.0
 30
0.0
  9
$PUCSXDIR
 10
1.0
 20
0.0
 30
0.0
  9
$PUCSYDIR
 10
0.0
 20
1.0
 30
0.0
  9
$PUCSORTHOREF
  2

  9
$PUCSORTHOVIEW
 70
     0
  9
$PUCSORGTOP
 10
0.0
 20
0.0
 30
0.0
  9
$PUCSORGBOTTOM
 10
0.0
 20
0.0
 30
0.0
  9
$PUCSORGLEFT
 10
0.0
 20
0.0
 30
0.0
  9
$PUCSORGRIGHT
 10
0.0
 20
0.0
 30
0.0
  9
$PUCSORGFRONT
 10
0.0
 20
0.0
 30
0.0
  9
$PUCSORGBACK
 10
0.0
 20
0.0
 30
0.0
  9
$USERI1
 70
     0
  9
$USERI2
 70
     0
  9
$USERI3
 70
     0
  9
$USERI4
 70
     0
  9
$USERI5
 70
     0
  9
$USERR1
 40
0.0
  9
$USERR2
 40
0.0
  9
$USERR3
 40
0.0
  9
$USERR4
 40
0.0
  9
$USERR5
 40
0.0
  9
$WORLDVIEW
 70
     1
  9
$SHADEDGE
 70
     3
  9
$SHADEDIF
 70
    70
  9
$TILEMODE
 70
     0
  9
$MAXACTVP
 70
    64
  9
$PINSBASE
 10
0.0
 20
0.0
 30
0.0
  9
$PLIMCHECK
 70
     0
  9
$PEXTMIN
 10
1.000000000000000E+20
 20
1.000000000000000E+20
 30
1.000000000000000E+20
  9
$PEXTMAX
 10
-1.000000000000000E+20
 20
-1.000000000000000E+20
 30
-1.000000000000000E+20
  9
$PLIMMIN
 10
-0.25
 20
-0.25
  9
$PLIMMAX
 10
10.75
 20
8.25
  9
$UNITMODE
 70
     0
  9
$VISRETAIN
 70
     1
  9
$PLINEGEN
 70
     0
  9
$PSLTSCALE
 70
     1
  9
$TREEDEPTH
 70
  3020
  9
$CMLSTYLE
  2
Standard
  9
$CMLJUST
 70
     0
  9
$CMLSCALE
 40
1.0
  9
$PROXYGRAPHICS
 70
     1
  9
$MEASUREMENT
 70
     0
  9
$CELWEIGHT
370
    -1
  9
$ENDCAPS
280
     0
  9
$JOINSTYLE
280
     0
  9
$LWDISPLAY
290
     0
  9
$INSUNITS
 70
     1
  9
$HYPERLINKBASE
  1

  9
$STYLESHEET
  1

  9
$XEDIT
290
     1
  9
$CEPSNTYPE
380
     0
  9
$PSTYLEMODE
290
     1
  9
$FINGERPRINTGUID
  2
{56435974-7986-4C03-8194-B7F00F0DA416}
  9
$VERSIONGUID
  2
{FAEB1C32-E019-11D5-929B-00C0DF256EC4}
  9
$EXTNAMES
290
     1
  9
$PSVPSCALE
 40
0.0
  9
$OLESTARTUP
290
     0
  9
$SORTENTS
280
   127
  9
$INDEXCTL
280
     0
  9
$HIDETEXT
280
     1
  9
$XCLIPFRAME
290
     0
  9
$HALOGAP
280
     0
  9
$OBSCOLOR
 70
   257
  9
$OBSLTYPE
280
     0
  9
$INTERSECTIONDISPLAY
280
     0
  9
$INTERSECTIONCOLOR
 70
   257
  9
$DIMASSOC
280
     2
  9
$PROJECTNAME
  1

  9
$CAMERADISPLAY
290
     0
  9
$LENSLENGTH
 40
50.0
  9
$CAMERAHEIGHT
 40
0.0
  9
$STEPSPERSEC
 40
2.0
  9
$STEPSIZE
 40
6.0
  9
$3DDWFPREC
 40
2.0
  9
$PSOLWIDTH
 40
0.25
  9
$PSOLHEIGHT
 40
4.0
  9
$LOFTANG1
 40
1.570796326794897
  9
$LOFTANG2
 40
1.570796326794897
  9
$LOFTMAG1
 40
0.0
  9
$LOFTMAG2
 40
0.0
  9
$LOFTPARAM
 70
     7
  9
$LOFTNORMALS
280
     1
  9
$LATITUDE
 40
37.795
  9
$LONGITUDE
 40
-122.394
  9
$NORTHDIRECTION
 40
0.0
  9
$TIMEZONE
 70
 -8000
  9
$LIGHTGLYPHDISPLAY
280
     1
  9
$TILEMODELIGHTSYNCH
280
     1
  9
$SOLIDHIST
280
     1
  9
$SHOWHIST
280
     1
  9
$DWFFRAME
280
     2
  9
$DGNFRAME
280
     2
  9
$REALWORLDSCALE
290
     1
  9
$INTERFERECOLOR
 62
   256
  9
$CSHADOW
280
     0
  9
$SHADOWPLANELOCATION
 40
0.0
  0
ENDSEC
  0
SECTION
  2
CLASSES
  0
CLASS
  1
ACDBDICTIONARYWDFLT
  2
AcDbDictionaryWithDefault
  3
ObjectDBX Classes
 90
        0
 91
        4
280
     0
281
     0
  0
CLASS
  1
VISUALSTYLE
  2
AcDbVisualStyle
  3
ObjectDBX Classes
 90
     4095
 91
        4
280
     0
281
     0
  0
CLASS
  1
MATERIAL
  2
AcDbMaterial
  3
ObjectDBX Classes
 90
     1153
 91
        4
280
     0
281
     0
  0
CLASS
  1
SCALE
  2
AcDbScale
  3
ObjectDBX Classes
 90
     1153
 91
        4
280
     0
281
     0
  0
CLASS
  1
DICTIONARYVAR
  2
AcDbDictionaryVar
  3
ObjectDBX Classes
 90
        0
 91
        4
280
     0
281
     0
  0
ENDSEC
  0
SECTION
  2
TABLES
  0
TABLE
  2
VPORT
  5
8
330
0
100
AcDbSymbolTable
 70
     1
  0
VPORT
  5
29
330
8
100
AcDbSymbolTableRecord
100
AcDbViewportTableRecord
  2
*Active
 70
     0
 10
0.0
 20
0.0
 11
1.0
 21
1.0
 12
10.42990654205607
 22
4.5
 13
0.0
 23
0.0
 14
0.5
 24
0.5
 15
0.5
 25
0.5
 16
0.0
 26
0.0
 36
1.0
 17
0.0
 27
0.0
 37
0.0
 40
9.0
 41
1.972972972850329
 42
50.0
 43
0.0
 44
0.0
 50
0.0
 51
0.0
 71
     0
 72
   100
 73
     1
 74
     3
 75
     0
 76
     0
 77
     0
 78
     0
281
     0
 65
     1
110
0.0
120
0.0
130
0.0
111
1.0
121
0.0
131
0.0
112
0.0
122
1.0
132
0.0
 79
     0
146
0.0
 60
     3
 61
     5
292
     1
282
     1
141
0.0
142
0.0
 63
   250
  0
ENDTAB
  0
TABLE
  2
LTYPE
  5
5
330
0
100
AcDbSymbolTable
 70
     6
  0
LTYPE
  5
14
330
5
100
AcDbSymbolTableRecord
100
AcDbLinetypeTableRecord
  2
ByBlock
 70
     0
  3

 72
    65
 73
     0
 40
0.0
  0
LTYPE
  5
15
330
5
100
AcDbSymbolTableRecord
100
AcDbLinetypeTableRecord
  2
ByLayer
 70
     0
  3

 72
    65
 73
     0
 40
0.0
  0
LTYPE
  5
16
330
5
100
AcDbSymbolTableRecord
100
AcDbLinetypeTableRecord
  2
Continuous
 70
     0
  3
Solid line
 72
    65
 73
     0
 40
0.0
  0
LTYPE
  5
64
330
5
100
AcDbSymbolTableRecord
100
AcDbLinetypeTableRecord
  2
SOLID
 70
     0
  3
Solid
 72
    65
 73
     0
 40
0.0
  0
LTYPE
  5
65
330
5
100
AcDbSymbolTableRecord
100
AcDbLinetypeTableRecord
  2
DASHED
 70
     0
  3
Dashed
 72
    65
 73
     2
 40
0.1875
 49
0.125
 74
     0
 49
-0.0625
 74
     0
  0
LTYPE
  5
66
330
5
100
AcDbSymbolTableRecord
100
AcDbLinetypeTableRecord
  2
CENTERLINE
 70
     0
  3
Centerline
 72
    65
 73
     4
 40
1.0
 49
0.75
 74
     0
 49
-0.0625
 74
     0
 49
0.125
 74
     0
 49
-0.0625
 74
     0
  0
LTYPE
  5
67
330
5
100
AcDbSymbolTableRecord
100
AcDbLinetypeTableRecord
  2
CONSTRUCTION
 70
     0
  3
Construction
 72
    65
 73
     2
 40
0.04
 49
0.01
 74
     0
 49
-0.03
 74
     0
  0
LTYPE
  5
68
330
5
100
AcDbSymbolTableRecord
100
AcDbLinetypeTableRecord
  2
GAP
 70
     0
  3
Gap
 72
    65
 73
     3
 40
100.0599999986589
 49
0.0
 74
     0
 49
-0.0599999986588955
 74
     0
 49
100.0
 74
     0
  0
ENDTAB
  0
TABLE
  2
LAYER
  5
2
330
0
100
AcDbSymbolTable
 70
     4
  0
LAYER
  5
10
330
2
100
AcDbSymbolTableRecord
100
AcDbLayerTableRecord
  2
0
 70
     0
 62
   110
  6
Continuous
370
    -3
390
F
347
3E
  0
LAYER
  5
69
330
2
100
AcDbSymbolTableRecord
100
AcDbLayerTableRecord
  2
Layer0$C$L0$V_DRAWING
 70
     0
 62
   110
  6
SOLID
370
    -3
390
F
347
3E
  0
LAYER
  5
6A
330
2
100
AcDbSymbolTableRecord
100
AcDbLayerTableRecord
  2
Layer0$C$L0$V_TOP
 70
     0
 62
   110
  6
SOLID
370
    -3
390
F
347
3E
  0
LAYER
  5
6B
330
2
100
AcDbSymbolTableRecord
100
AcDbLayerTableRecord
  2
VIEWPORTS
 70
     0
 62
     7
  6
SOLID
370
    -3
390
F
347
3E
  0
ENDTAB
  0
TABLE
  2
STYLE
  5
3
330
0
100
AcDbSymbolTable
 70
     2
  0
STYLE
  5
11
330
3
100
AcDbSymbolTableRecord
100
AcDbTextStyleTableRecord
  2
Standard
 70
     0
 40
0.0
 41
1.0
 50
0.0
 71
     0
 42
0.2
  3
txt
  4

  0
STYLE
  5
6C
330
3
100
AcDbSymbolTableRecord
100
AcDbTextStyleTableRecord
  2
CADRASTD
 70
     0
 40
0.0
 41
1.0
 50
0.0
 71
     0
 42
0.125
  3
txt
  4

  0
ENDTAB
  0
TABLE
  2
VIEW
  5
6
330
0
100
AcDbSymbolTable
 70
     0
  0
ENDTAB
  0
TABLE
  2
UCS
  5
7
330
0
100
AcDbSymbolTable
 70
     0
  0
ENDTAB
  0
TABLE
  2
APPID
  5
9
330
0
100
AcDbSymbolTable
 70
     1
  0
APPID
  5
12
330
9
100
AcDbSymbolTableRecord
100
AcDbRegAppTableRecord
  2
ACAD
 70
     0
  0
ENDTAB
  0
TABLE
  2
DIMSTYLE
  5
A
330
0
100
AcDbSymbolTable
 70
     4
100
AcDbDimStyleTable
  0
DIMSTYLE
105
27
330
A
100
AcDbSymbolTableRecord
100
AcDbDimStyleTableRecord
  2
Standard
 70
     0
340
11
  0
DIMSTYLE
105
6D
330
A
100
AcDbSymbolTableRecord
100
AcDbDimStyleTableRecord
  2
CADRASTANDARD
 70
     0
 41
0.1538774404644427
 42
0.0
 44
0.0
 73
     0
 74
     0
 77
     3
140
0.156
143
1.0
147
0.078
171
     0
179
 17154
271
     2
272
     2
275
     1
277
     0
278
     0
340
6C
  0
DIMSTYLE
105
6E
330
A
100
AcDbSymbolTableRecord
100
AcDbDimStyleTableRecord
  2
DIM2
 70
     0
 41
0.1559999883174896
 42
0.1000000014901161
 44
0.1500000059604645
 71
     1
140
0.1666666701053962
143
1.0
147
0.0833333350526981
171
     0
179
 17153
271
     2
272
     2
274
     0
275
     1
278
     0
340
6C
341
40
342
40
343
40
344
40
  0
DIMSTYLE
105
6F
102
{ACAD_REACTORS
330
1CC
330
1CD
330
1CE
330
1CF
330
1D0
330
1D1
330
1D2
330
1D3
102
}
330
A
100
AcDbSymbolTableRecord
100
AcDbDimStyleTableRecord
  2
DIM3
 70
     0
 41
0.1559999883174896
 42
0.1000000014901161
 44
0.1500000059604645
140
0.1666666701053962
143
1.0
147
0.0833333350526981
171
     0
179
 17153
271
     2
272
     2
274
     0
275
     1
278
     0
340
6C
341
40
342
40
343
40
344
40
  0
ENDTAB
  0
TABLE
  2
BLOCK_RECORD
  5
1
330
0
100
AcDbSymbolTable
 70
    13
  0
BLOCK_RECORD
  5
1F
330
1
100
AcDbSymbolTableRecord
100
AcDbBlockTableRecord
  2
*Model_Space
340
22
 70
     0
280
     1
281
     0
  0
BLOCK_RECORD
  5
1B
330
1
100
AcDbSymbolTableRecord
100
AcDbBlockTableRecord
  2
*Paper_Space
340
1E
 70
     0
280
     1
281
     0
  0
BLOCK_RECORD
  5
23
330
1
100
AcDbSymbolTableRecord
100
AcDbBlockTableRecord
  2
*Paper_Space0
340
26
 70
     0
280
     1
281
     0
  0
BLOCK_RECORD
  5
40
330
1
100
AcDbSymbolTableRecord
100
AcDbBlockTableRecord
  2
CADRA_ARROW22_5FILLED
340
0
 70
     0
280
     1
281
     0
  0
BLOCK_RECORD
  5
43
330
1
100
AcDbSymbolTableRecord
100
AcDbBlockTableRecord
  2
*D2
340
0
102
{BLKREFS
331
1CB
102
}
 70
     0
280
     1
281
     0
  0
BLOCK_RECORD
  5
46
330
1
100
AcDbSymbolTableRecord
100
AcDbBlockTableRecord
  2
*D3
340
0
 70
     0
280
     1
281
     0
  0
BLOCK_RECORD
  5
49
330
1
100
AcDbSymbolTableRecord
100
AcDbBlockTableRecord
  2
*D4
340
0
 70
     0
280
     1
281
     0
  0
BLOCK_RECORD
  5
4C
330
1
100
AcDbSymbolTableRecord
100
AcDbBlockTableRecord
  2
*D5
340
0
 70
     0
280
     1
281
     0
  0
BLOCK_RECORD
  5
4F
330
1
100
AcDbSymbolTableRecord
100
AcDbBlockTableRecord
  2
*D6
340
0
 70
     0
280
     1
281
     0
  0
BLOCK_RECORD
  5
52
330
1
100
AcDbSymbolTableRecord
100
AcDbBlockTableRecord
  2
*D7
340
0
 70
     0
280
     1
281
     0
  0
BLOCK_RECORD
  5
55
330
1
100
AcDbSymbolTableRecord
100
AcDbBlockTableRecord
  2
*D8
340
0
 70
     0
280
     1
281
     0
  0
BLOCK_RECORD
  5
58
330
1
100
AcDbSymbolTableRecord
100
AcDbBlockTableRecord
  2
*D9
340
0
 70
     0
280
     1
281
     0
  0
BLOCK_RECORD
  5
5B
330
1
100
AcDbSymbolTableRecord
100
AcDbBlockTableRecord
  2
*D10
340
0
 70
     0
280
     1
281
     0
  0
BLOCK_RECORD
  5
5E
330
1
100
AcDbSymbolTableRecord
100
AcDbBlockTableRecord
  2
SIDNUT_312
340
0
102
{BLKREFS
331
1DC
102
}
 70
     0
280
     1
281
     0
  0
BLOCK_RECORD
  5
61
330
1
100
AcDbSymbolTableRecord
100
AcDbBlockTableRecord
  2
TOPSET_75
340
0
102
{BLKREFS
331
1F2
331
252
102
}
 70
     0
280
     1
281
     0
  0
ENDTAB
  0
ENDSEC
  0
SECTION
  2
BLOCKS
  0
BLOCK
  5
20
330
1F
100
AcDbEntity
  8
0
100
AcDbBlockBegin
  2
*Model_Space
 70
     0
 10
0.0
 20
0.0
 30
0.0
  3
*Model_Space
  1

  0
ENDBLK
  5
21
330
1F
100
AcDbEntity
  8
0
100
AcDbBlockEnd
  0
BLOCK
  5
1C
330
1B
100
AcDbEntity
 67
     1
  8
0
100
AcDbBlockBegin
  2
*Paper_Space
 70
     0
 10
0.0
 20
0.0
 30
0.0
  3
*Paper_Space
  1

  0
ENDBLK
  5
1D
330
1B
100
AcDbEntity
 67
     1
  8
0
100
AcDbBlockEnd
  0
BLOCK
  5
24
330
23
100
AcDbEntity
  8
0
100
AcDbBlockBegin
  2
*Paper_Space0
 70
     0
 10
0.0
 20
0.0
 30
0.0
  3
*Paper_Space0
  1

  0
ENDBLK
  5
25
330
23
100
AcDbEntity
  8
0
100
AcDbBlockEnd
  0
BLOCK
  5
41
330
40
100
AcDbEntity
  8
0
100
AcDbBlockBegin
  2
CADRA_ARROW22_5FILLED
 70
     0
 10
0.0
 20
0.0
 30
0.0
  3
CADRA_ARROW22_5FILLED
  1

  0
LINE
  5
CD
330
40
100
AcDbEntity
  8
Layer0$C$L0$V_DRAWING
100
AcDbLine
 10
-0.9807852804032304
 20
-0.1950903220161283
 30
0.0
 11
-0.9807852804032304
 21
0.1950903220161283
 31
0.0
  0
LINE
  5
CE
330
40
100
AcDbEntity
  8
Layer0$C$L0$V_DRAWING
100
AcDbLine
 10
-0.9707852804032304
 20
-0.1931011983423317
 30
0.0
 11
-0.9707852804032304
 21
0.1931011983423317
 31
0.0
  0
LINE
  5
CF
330
40
100
AcDbEntity
  8
Layer0$C$L0$V_DRAWING
100
AcDbLine
 10
-0.9607852804032304
 20
-0.1911120746685351
 30
0.0
 11
-0.9607852804032304
 21
0.1911120746685351
 31
0.0
  0
LINE
  5
D0
330
40
100
AcDbEntity
  8
Layer0$C$L0$V_DRAWING
100
AcDbLine
 10
-0.9507852804032304
 20
-0.1891229509947385
 30
0.0
 11
-0.9507852804032304
 21
0.1891229509947385
 31
0.0
  0
LINE
  5
D1
330
40
100
AcDbEntity
  8
Layer0$C$L0$V_DRAWING
100
AcDbLine
 10
-0.9407852804032304
 20
-0.1871338273209419
 30
0.0
 11
-0.9407852804032304
 21
0.1871338273209419
 31
0.0
  0
LINE
  5
D2
330
40
100
AcDbEntity
  8
Layer0$C$L0$V_DRAWING
100
AcDbLine
 10
-0.9307852804032304
 20
-0.1851447036471454
 30
0.0
 11
-0.9307852804032304
 21
0.1851447036471454
 31
0.0
  0
LINE
  5
D3
330
40
100
AcDbEntity
  8
Layer0$C$L0$V_DRAWING
100
AcDbLine
 10
-0.9207852804032304
 20
-0.1831555799733488
 30
0.0
 11
-0.9207852804032304
 21
0.1831555799733488
 31
0.0
  0
LINE
  5
D4
330
40
100
AcDbEntity
  8
Layer0$C$L0$V_DRAWING
100
AcDbLine
 10
-0.9107852804032304
 20
-0.1811664562995522
 30
0.0
 11
-0.9107852804032304
 21
0.1811664562995522
 31
0.0
  0
LINE
  5
D5
330
40
100
AcDbEntity
  8
Layer0$C$L0$V_DRAWING
100
AcDbLine
 10
-0.9007852804032304
 20
-0.1791773326257556
 30
0.0
 11
-0.9007852804032304
 21
0.1791773326257556
 31
0.0
  0
LINE
  5
D6
330
40
100
AcDbEntity
  8
Layer0$C$L0$V_DRAWING
100
AcDbLine
 10
-0.8907852804032304
 20
-0.177188208951959
 30
0.0
 11
-0.8907852804032304
 21
0.177188208951959
 31
0.0
  0
LINE
  5
D7
330
40
100
AcDbEntity
  8
Layer0$C$L0$V_DRAWING
100
AcDbLine
 10
-0.8807852804032303
 20
-0.1751990852781624
 30
0.0
 11
-0.8807852804032303
 21
0.1751990852781624
 31
0.0
  0
LINE
  5
D8
330
40
100
AcDbEntity
  8
Layer0$C$L0$V_DRAWING
100
AcDbLine
 10
-0.8707852804032303
 20
-0.1732099616043659
 30
0.0
 11
-0.8707852804032303
 21
0.1732099616043659
 31
0.0
  0
LINE
  5
D9
330
40
100
AcDbEntity
  8
Layer0$C$L0$V_DRAWING
100
AcDbLine
 10
-0.8607852804032303
 20
-0.1712208379305693
 30
0.0
 11
-0.8607852804032303
 21
0.1712208379305693
 31
0.0
  0
LINE
  5
DA
330
40
100
AcDbEntity
  8
Layer0$C$L0$V_DRAWING
100
AcDbLine
 10
-0.8507852804032303
 20
-0.1692317142567727
 30
0.0
 11
-0.8507852804032303
 21
0.1692317142567727
 31
0.0
  0
LINE
  5
DB
330
40
100
AcDbEntity
  8
Layer0$C$L0$V_DRAWING
100
AcDbLine
 10
-0.8407852804032303
 20
-0.1672425905829761
 30
0.0
 11
-0.8407852804032303
 21
0.1672425905829761
 31
0.0
  0
LINE
  5
DC
330
40
100
AcDbEntity
  8
Layer0$C$L0$V_DRAWING
100
AcDbLine
 10
-0.8307852804032303
 20
-0.1652534669091795
 30
0.0
 11
-0.8307852804032303
 21
0.1652534669091795
 31
0.0
  0
LINE
  5
DD
330
40
100
AcDbEntity
  8
Layer0$C$L0$V_DRAWING
100
AcDbLine
 10
-0.8207852804032303
 20
-0.1632643432353829
 30
0.0
 11
-0.8207852804032303
 21
0.1632643432353829
 31
0.0
  0
LINE
  5
DE
330
40
100
AcDbEntity
  8
Layer0$C$L0$V_DRAWING
100
AcDbLine
 10
-0.8107852804032303
 20
-0.1612752195615864
 30
0.0
 11
-0.8107852804032303
 21
0.1612752195615864
 31
0.0
  0
LINE
  5
DF
330
40
100
AcDbEntity
  8
Layer0$C$L0$V_DRAWING
100
AcDbLine
 10
-0.8007852804032303
 20
-0.1592860958877898
 30
0.0
 11
-0.8007852804032303
 21
0.1592860958877898
 31
0.0
  0
LINE
  5
E0
330
40
100
AcDbEntity
  8
Layer0$C$L0$V_DRAWING
100
AcDbLine
 10
-0.7907852804032303
 20
-0.1572969722139932
 30
0.0
 11
-0.7907852804032303
 21
0.1572969722139932
 31
0.0
  0
LINE
  5
E1
330
40
100
AcDbEntity
  8
Layer0$C$L0$V_DRAWING
100
AcDbLine
 10
-0.7807852804032303
 20
-0.1553078485401966
 30
0.0
 11
-0.7807852804032303
 21
0.1553078485401966
 31
0.0
  0
LINE
  5
E2
330
40
100
AcDbEntity
  8
Layer0$C$L0$V_DRAWING
100
AcDbLine
 10
-0.7707852804032302
 20
-0.1533187248664001
 30
0.0
 11
-0.7707852804032302
 21
0.1533187248664001
 31
0.0
  0
LINE
  5
E3
330
40
100
AcDbEntity
  8
Layer0$C$L0$V_DRAWING
100
AcDbLine
 10
-0.7607852804032302
 20
-0.1513296011926035
 30
0.0
 11
-0.7607852804032302
 21
0.1513296011926035
 31
0.0
  0
LINE
  5
E4
330
40
100
AcDbEntity
  8
Layer0$C$L0$V_DRAWING
100
AcDbLine
 10
-0.7507852804032302
 20
-0.1493404775188069
 30
0.0
 11
-0.7507852804032302
 21
0.1493404775188069
 31
0.0
  0
LINE
  5
E5
330
40
100
AcDbEntity
  8
Layer0$C$L0$V_DRAWING
100
AcDbLine
 10
-0.7407852804032302
 20
-0.1473513538450103
 30
0.0
 11
-0.7407852804032302
 21
0.1473513538450103
 31
0.0
  0
LINE
  5
E6
330
40
100
AcDbEntity
  8
Layer0$C$L0$V_DRAWING
100
AcDbLine
 10
-0.7307852804032302
 20
-0.1453622301712137
 30
0.0
 11
-0.7307852804032302
 21
0.1453622301712137
 31
0.0
  0
LINE
  5
E7
330
40
100
AcDbEntity
  8
Layer0$C$L0$V_DRAWING
100
AcDbLine
 10
-0.7207852804032302
 20
-0.1433731064974171
 30
0.0
 11
-0.7207852804032302
 21
0.1433731064974171
 31
0.0
  0
LINE
  5
E8
330
40
100
AcDbEntity
  8
Layer0$C$L0$V_DRAWING
100
AcDbLine
 10
-0.7107852804032302
 20
-0.1413839828236206
 30
0.0
 11
-0.7107852804032302
 21
0.1413839828236206
 31
0.0
  0
LINE
  5
E9
330
40
100
AcDbEntity
  8
Layer0$C$L0$V_DRAWING
100
AcDbLine
 10
-0.7007852804032302
 20
-0.139394859149824
 30
0.0
 11
-0.7007852804032302
 21
0.139394859149824
 31
0.0
  0
LINE
  5
EA
330
40
100
AcDbEntity
  8
Layer0$C$L0$V_DRAWING
100
AcDbLine
 10
-0.6907852804032302
 20
-0.1374057354760274
 30
0.0
 11
-0.6907852804032302
 21
0.1374057354760274
 31
0.0
  0
LINE
  5
EB
330
40
100
AcDbEntity
  8
Layer0$C$L0$V_DRAWING
100
AcDbLine
 10
-0.6807852804032302
 20
-0.1354166118022308
 30
0.0
 11
-0.6807852804032302
 21
0.1354166118022308
 31
0.0
  0
LINE
  5
EC
330
40
100
AcDbEntity
  8
Layer0$C$L0$V_DRAWING
100
AcDbLine
 10
-0.6707852804032302
 20
-0.1334274881284342
 30
0.0
 11
-0.6707852804032302
 21
0.1334274881284342
 31
0.0
  0
LINE
  5
ED
330
40
100
AcDbEntity
  8
Layer0$C$L0$V_DRAWING
100
AcDbLine
 10
-0.6607852804032301
 20
-0.1314383644546376
 30
0.0
 11
-0.6607852804032301
 21
0.1314383644546376
 31
0.0
  0
LINE
  5
EE
330
40
100
AcDbEntity
  8
Layer0$C$L0$V_DRAWING
100
AcDbLine
 10
-0.6507852804032301
 20
-0.1294492407808411
 30
0.0
 11
-0.6507852804032301
 21
0.1294492407808411
 31
0.0
  0
LINE
  5
EF
330
40
100
AcDbEntity
  8
Layer0$C$L0$V_DRAWING
100
AcDbLine
 10
-0.6407852804032301
 20
-0.1274601171070445
 30
0.0
 11
-0.6407852804032301
 21
0.1274601171070445
 31
0.0
  0
LINE
  5
F0
330
40
100
AcDbEntity
  8
Layer0$C$L0$V_DRAWING
100
AcDbLine
 10
-0.6307852804032301
 20
-0.1254709934332479
 30
0.0
 11
-0.6307852804032301
 21
0.1254709934332479
 31
0.0
  0
LINE
  5
F1
330
40
100
AcDbEntity
  8
Layer0$C$L0$V_DRAWING
100
AcDbLine
 10
-0.6207852804032301
 20
-0.1234818697594513
 30
0.0
 11
-0.6207852804032301
 21
0.1234818697594513
 31
0.0
  0
LINE
  5
F2
330
40
100
AcDbEntity
  8
Layer0$C$L0$V_DRAWING
100
AcDbLine
 10
-0.6107852804032301
 20
-0.1214927460856547
 30
0.0
 11
-0.6107852804032301
 21
0.1214927460856547
 31
0.0
  0
LINE
  5
F3
330
40
100
AcDbEntity
  8
Layer0$C$L0$V_DRAWING
100
AcDbLine
 10
-0.6007852804032301
 20
-0.1195036224118581
 30
0.0
 11
-0.6007852804032301
 21
0.1195036224118581
 31
0.0
  0
LINE
  5
F4
330
40
100
AcDbEntity
  8
Layer0$C$L0$V_DRAWING
100
AcDbLine
 10
-0.5907852804032301
 20
-0.1175144987380616
 30
0.0
 11
-0.5907852804032301
 21
0.1175144987380616
 31
0.0
  0
LINE
  5
F5
330
40
100
AcDbEntity
  8
Layer0$C$L0$V_DRAWING
100
AcDbLine
 10
-0.5807852804032301
 20
-0.115525375064265
 30
0.0
 11
-0.5807852804032301
 21
0.115525375064265
 31
0.0
  0
LINE
  5
F6
330
40
100
AcDbEntity
  8
Layer0$C$L0$V_DRAWING
100
AcDbLine
 10
-0.5707852804032301
 20
-0.1135362513904684
 30
0.0
 11
-0.5707852804032301
 21
0.1135362513904684
 31
0.0
  0
LINE
  5
F7
330
40
100
AcDbEntity
  8
Layer0$C$L0$V_DRAWING
100
AcDbLine
 10
-0.5607852804032301
 20
-0.1115471277166718
 30
0.0
 11
-0.5607852804032301
 21
0.1115471277166718
 31
0.0
  0
LINE
  5
F8
330
40
100
AcDbEntity
  8
Layer0$C$L0$V_DRAWING
100
AcDbLine
 10
-0.55078528040323
 20
-0.1095580040428752
 30
0.0
 11
-0.55078528040323
 21
0.1095580040428752
 31
0.0
  0
LINE
  5
F9
330
40
100
AcDbEntity
  8
Layer0$C$L0$V_DRAWING
100
AcDbLine
 10
-0.54078528040323
 20
-0.1075688803690787
 30
0.0
 11
-0.54078528040323
 21
0.1075688803690787
 31
0.0
  0
LINE
  5
FA
330
40
100
AcDbEntity
  8
Layer0$C$L0$V_DRAWING
100
AcDbLine
 10
-0.53078528040323
 20
-0.1055797566952821
 30
0.0
 11
-0.53078528040323
 21
0.1055797566952821
 31
0.0
  0
LINE
  5
FB
330
40
100
AcDbEntity
  8
Layer0$C$L0$V_DRAWING
100
AcDbLine
 10
-0.52078528040323
 20
-0.1035906330214855
 30
0.0
 11
-0.52078528040323
 21
0.1035906330214855
 31
0.0
  0
LINE
  5
FC
330
40
100
AcDbEntity
  8
Layer0$C$L0$V_DRAWING
100
AcDbLine
 10
-0.51078528040323
 20
-0.1016015093476889
 30
0.0
 11
-0.51078528040323
 21
0.1016015093476889
 31
0.0
  0
LINE
  5
FD
330
40
100
AcDbEntity
  8
Layer0$C$L0$V_DRAWING
100
AcDbLine
 10
-0.50078528040323
 20
-0.0996123856738923
 30
0.0
 11
-0.50078528040323
 21
0.0996123856738923
 31
0.0
  0
LINE
  5
FE
330
40
100
AcDbEntity
  8
Layer0$C$L0$V_DRAWING
100
AcDbLine
 10
-0.49078528040323
 20
-0.0976232620000958
 30
0.0
 11
-0.49078528040323
 21
0.0976232620000958
 31
0.0
  0
LINE
  5
FF
330
40
100
AcDbEntity
  8
Layer0$C$L0$V_DRAWING
100
AcDbLine
 10
-0.48078528040323
 20
-0.0956341383262992
 30
0.0
 11
-0.48078528040323
 21
0.0956341383262992
 31
0.0
  0
LINE
  5
100
330
40
100
AcDbEntity
  8
Layer0$C$L0$V_DRAWING
100
AcDbLine
 10
-0.47078528040323
 20
-0.0936450146525026
 30
0.0
 11
-0.47078528040323
 21
0.0936450146525026
 31
0.0
  0
LINE
  5
101
330
40
100
AcDbEntity
  8
Layer0$C$L0$V_DRAWING
100
AcDbLine
 10
-0.46078528040323
 20
-0.091655890978706
 30
0.0
 11
-0.46078528040323
 21
0.091655890978706
 31
0.0
  0
LINE
  5
102
330
40
100
AcDbEntity
  8
Layer0$C$L0$V_DRAWING
100
AcDbLine
 10
-0.45078528040323
 20
-0.0896667673049094
 30
0.0
 11
-0.45078528040323
 21
0.0896667673049094
 31
0.0
  0
LINE
  5
103
330
40
100
AcDbEntity
  8
Layer0$C$L0$V_DRAWING
100
AcDbLine
 10
-0.44078528040323
 20
-0.0876776436311128
 30
0.0
 11
-0.44078528040323
 21
0.0876776436311128
 31
0.0
  0
LINE
  5
104
330
40
100
AcDbEntity
  8
Layer0$C$L0$V_DRAWING
100
AcDbLine
 10
-0.4307852804032299
 20
-0.0856885199573163
 30
0.0
 11
-0.4307852804032299
 21
0.0856885199573163
 31
0.0
  0
LINE
  5
105
330
40
100
AcDbEntity
  8
Layer0$C$L0$V_DRAWING
100
AcDbLine
 10
-0.4207852804032299
 20
-0.0836993962835197
 30
0.0
 11
-0.4207852804032299
 21
0.0836993962835197
 31
0.0
  0
LINE
  5
106
330
40
100
AcDbEntity
  8
Layer0$C$L0$V_DRAWING
100
AcDbLine
 10
-0.4107852804032299
 20
-0.0817102726097231
 30
0.0
 11
-0.4107852804032299
 21
0.0817102726097231
 31
0.0
  0
LINE
  5
107
330
40
100
AcDbEntity
  8
Layer0$C$L0$V_DRAWING
100
AcDbLine
 10
-0.4007852804032299
 20
-0.0797211489359265
 30
0.0
 11
-0.4007852804032299
 21
0.0797211489359265
 31
0.0
  0
LINE
  5
108
330
40
100
AcDbEntity
  8
Layer0$C$L0$V_DRAWING
100
AcDbLine
 10
-0.3907852804032299
 20
-0.0777320252621299
 30
0.0
 11
-0.3907852804032299
 21
0.0777320252621299
 31
0.0
  0
LINE
  5
109
330
40
100
AcDbEntity
  8
Layer0$C$L0$V_DRAWING
100
AcDbLine
 10
-0.3807852804032299
 20
-0.0757429015883334
 30
0.0
 11
-0.3807852804032299
 21
0.0757429015883334
 31
0.0
  0
LINE
  5
10A
330
40
100
AcDbEntity
  8
Layer0$C$L0$V_DRAWING
100
AcDbLine
 10
-0.3707852804032299
 20
-0.0737537779145368
 30
0.0
 11
-0.3707852804032299
 21
0.0737537779145368
 31
0.0
  0
LINE
  5
10B
330
40
100
AcDbEntity
  8
Layer0$C$L0$V_DRAWING
100
AcDbLine
 10
-0.3607852804032299
 20
-0.0717646542407402
 30
0.0
 11
-0.3607852804032299
 21
0.0717646542407402
 31
0.0
  0
LINE
  5
10C
330
40
100
AcDbEntity
  8
Layer0$C$L0$V_DRAWING
100
AcDbLine
 10
-0.3507852804032299
 20
-0.0697755305669436
 30
0.0
 11
-0.3507852804032299
 21
0.0697755305669436
 31
0.0
  0
LINE
  5
10D
330
40
100
AcDbEntity
  8
Layer0$C$L0$V_DRAWING
100
AcDbLine
 10
-0.3407852804032299
 20
-0.067786406893147
 30
0.0
 11
-0.3407852804032299
 21
0.067786406893147
 31
0.0
  0
LINE
  5
10E
330
40
100
AcDbEntity
  8
Layer0$C$L0$V_DRAWING
100
AcDbLine
 10
-0.3307852804032299
 20
-0.0657972832193504
 30
0.0
 11
-0.3307852804032299
 21
0.0657972832193504
 31
0.0
  0
LINE
  5
10F
330
40
100
AcDbEntity
  8
Layer0$C$L0$V_DRAWING
100
AcDbLine
 10
-0.3207852804032298
 20
-0.0638081595455539
 30
0.0
 11
-0.3207852804032298
 21
0.0638081595455539
 31
0.0
  0
LINE
  5
110
330
40
100
AcDbEntity
  8
Layer0$C$L0$V_DRAWING
100
AcDbLine
 10
-0.3107852804032298
 20
-0.0618190358717573
 30
0.0
 11
-0.3107852804032298
 21
0.0618190358717573
 31
0.0
  0
LINE
  5
111
330
40
100
AcDbEntity
  8
Layer0$C$L0$V_DRAWING
100
AcDbLine
 10
-0.3007852804032298
 20
-0.0598299121979607
 30
0.0
 11
-0.3007852804032298
 21
0.0598299121979607
 31
0.0
  0
LINE
  5
112
330
40
100
AcDbEntity
  8
Layer0$C$L0$V_DRAWING
100
AcDbLine
 10
-0.2907852804032298
 20
-0.0578407885241641
 30
0.0
 11
-0.2907852804032298
 21
0.0578407885241641
 31
0.0
  0
LINE
  5
113
330
40
100
AcDbEntity
  8
Layer0$C$L0$V_DRAWING
100
AcDbLine
 10
-0.2807852804032298
 20
-0.0558516648503675
 30
0.0
 11
-0.2807852804032298
 21
0.0558516648503675
 31
0.0
  0
LINE
  5
114
330
40
100
AcDbEntity
  8
Layer0$C$L0$V_DRAWING
100
AcDbLine
 10
-0.2707852804032298
 20
-0.053862541176571
 30
0.0
 11
-0.2707852804032298
 21
0.053862541176571
 31
0.0
  0
LINE
  5
115
330
40
100
AcDbEntity
  8
Layer0$C$L0$V_DRAWING
100
AcDbLine
 10
-0.2607852804032298
 20
-0.0518734175027744
 30
0.0
 11
-0.2607852804032298
 21
0.0518734175027744
 31
0.0
  0
LINE
  5
116
330
40
100
AcDbEntity
  8
Layer0$C$L0$V_DRAWING
100
AcDbLine
 10
-0.2507852804032298
 20
-0.0498842938289778
 30
0.0
 11
-0.2507852804032298
 21
0.0498842938289778
 31
0.0
  0
LINE
  5
117
330
40
100
AcDbEntity
  8
Layer0$C$L0$V_DRAWING
100
AcDbLine
 10
-0.2407852804032298
 20
-0.0478951701551812
 30
0.0
 11
-0.2407852804032298
 21
0.0478951701551812
 31
0.0
  0
LINE
  5
118
330
40
100
AcDbEntity
  8
Layer0$C$L0$V_DRAWING
100
AcDbLine
 10
-0.2307852804032298
 20
-0.0459060464813846
 30
0.0
 11
-0.2307852804032298
 21
0.0459060464813846
 31
0.0
  0
LINE
  5
119
330
40
100
AcDbEntity
  8
Layer0$C$L0$V_DRAWING
100
AcDbLine
 10
-0.2207852804032298
 20
-0.043916922807588
 30
0.0
 11
-0.2207852804032298
 21
0.043916922807588
 31
0.0
  0
LINE
  5
11A
330
40
100
AcDbEntity
  8
Layer0$C$L0$V_DRAWING
100
AcDbLine
 10
-0.2107852804032297
 20
-0.0419277991337915
 30
0.0
 11
-0.2107852804032297
 21
0.0419277991337915
 31
0.0
  0
LINE
  5
11B
330
40
100
AcDbEntity
  8
Layer0$C$L0$V_DRAWING
100
AcDbLine
 10
-0.2007852804032297
 20
-0.0399386754599949
 30
0.0
 11
-0.2007852804032297
 21
0.0399386754599949
 31
0.0
  0
LINE
  5
11C
330
40
100
AcDbEntity
  8
Layer0$C$L0$V_DRAWING
100
AcDbLine
 10
-0.1907852804032297
 20
-0.0379495517861983
 30
0.0
 11
-0.1907852804032297
 21
0.0379495517861983
 31
0.0
  0
LINE
  5
11D
330
40
100
AcDbEntity
  8
Layer0$C$L0$V_DRAWING
100
AcDbLine
 10
-0.1807852804032297
 20
-0.0359604281124017
 30
0.0
 11
-0.1807852804032297
 21
0.0359604281124017
 31
0.0
  0
LINE
  5
11E
330
40
100
AcDbEntity
  8
Layer0$C$L0$V_DRAWING
100
AcDbLine
 10
-0.1707852804032297
 20
-0.0339713044386051
 30
0.0
 11
-0.1707852804032297
 21
0.0339713044386051
 31
0.0
  0
LINE
  5
11F
330
40
100
AcDbEntity
  8
Layer0$C$L0$V_DRAWING
100
AcDbLine
 10
-0.1607852804032297
 20
-0.0319821807648086
 30
0.0
 11
-0.1607852804032297
 21
0.0319821807648086
 31
0.0
  0
LINE
  5
120
330
40
100
AcDbEntity
  8
Layer0$C$L0$V_DRAWING
100
AcDbLine
 10
-0.1507852804032297
 20
-0.029993057091012
 30
0.0
 11
-0.1507852804032297
 21
0.029993057091012
 31
0.0
  0
LINE
  5
121
330
40
100
AcDbEntity
  8
Layer0$C$L0$V_DRAWING
100
AcDbLine
 10
-0.1407852804032297
 20
-0.0280039334172154
 30
0.0
 11
-0.1407852804032297
 21
0.0280039334172154
 31
0.0
  0
LINE
  5
122
330
40
100
AcDbEntity
  8
Layer0$C$L0$V_DRAWING
100
AcDbLine
 10
-0.1307852804032297
 20
-0.0260148097434188
 30
0.0
 11
-0.1307852804032297
 21
0.0260148097434188
 31
0.0
  0
LINE
  5
123
330
40
100
AcDbEntity
  8
Layer0$C$L0$V_DRAWING
100
AcDbLine
 10
-0.1207852804032297
 20
-0.0240256860696222
 30
0.0
 11
-0.1207852804032297
 21
0.0240256860696222
 31
0.0
  0
LINE
  5
124
330
40
100
AcDbEntity
  8
Layer0$C$L0$V_DRAWING
100
AcDbLine
 10
-0.1107852804032297
 20
-0.0220365623958256
 30
0.0
 11
-0.1107852804032297
 21
0.0220365623958256
 31
0.0
  0
LINE
  5
125
330
40
100
AcDbEntity
  8
Layer0$C$L0$V_DRAWING
100
AcDbLine
 10
-0.1007852804032297
 20
-0.0200474387220291
 30
0.0
 11
-0.1007852804032297
 21
0.0200474387220291
 31
0.0
  0
LINE
  5
126
330
40
100
AcDbEntity
  8
Layer0$C$L0$V_DRAWING
100
AcDbLine
 10
-0.0907852804032297
 20
-0.0180583150482325
 30
0.0
 11
-0.0907852804032297
 21
0.0180583150482325
 31
0.0
  0
LINE
  5
127
330
40
100
AcDbEntity
  8
Layer0$C$L0$V_DRAWING
100
AcDbLine
 10
-0.0807852804032297
 20
-0.0160691913744359
 30
0.0
 11
-0.0807852804032297
 21
0.0160691913744359
 31
0.0
  0
LINE
  5
128
330
40
100
AcDbEntity
  8
Layer0$C$L0$V_DRAWING
100
AcDbLine
 10
-0.0707852804032297
 20
-0.0140800677006393
 30
0.0
 11
-0.0707852804032297
 21
0.0140800677006393
 31
0.0
  0
LINE
  5
129
330
40
100
AcDbEntity
  8
Layer0$C$L0$V_DRAWING
100
AcDbLine
 10
-0.0607852804032297
 20
-0.0120909440268428
 30
0.0
 11
-0.0607852804032297
 21
0.0120909440268428
 31
0.0
  0
LINE
  5
12A
330
40
100
AcDbEntity
  8
Layer0$C$L0$V_DRAWING
100
AcDbLine
 10
-0.0507852804032297
 20
-0.0101018203530462
 30
0.0
 11
-0.0507852804032297
 21
0.0101018203530462
 31
0.0
  0
LINE
  5
12B
330
40
100
AcDbEntity
  8
Layer0$C$L0$V_DRAWING
100
AcDbLine
 10
-0.0407852804032297
 20
-0.0081126966792496
 30
0.0
 11
-0.0407852804032297
 21
0.0081126966792496
 31
0.0
  0
LINE
  5
12C
330
40
100
AcDbEntity
  8
Layer0$C$L0$V_DRAWING
100
AcDbLine
 10
-0.0307852804032297
 20
-0.006123573005453
 30
0.0
 11
-0.0307852804032297
 21
0.006123573005453
 31
0.0
  0
LINE
  5
12D
330
40
100
AcDbEntity
  8
Layer0$C$L0$V_DRAWING
100
AcDbLine
 10
-0.0207852804032297
 20
-0.0041344493316564
 30
0.0
 11
-0.0207852804032297
 21
0.0041344493316564
 31
0.0
  0
LINE
  5
12E
330
40
100
AcDbEntity
  8
Layer0$C$L0$V_DRAWING
100
AcDbLine
 10
-0.0107852804032297
 20
-0.0021453256578599
 30
0.0
 11
-0.0107852804032297
 21
0.0021453256578599
 31
0.0
  0
LINE
  5
12F
330
40
100
AcDbEntity
  8
Layer0$C$L0$V_DRAWING
100
AcDbLine
 10
-0.9807852804032304
 20
0.1850903220161282
 30
0.0
 11
-0.930511885481972
 21
0.1850903220161282
 31
0.0
  0
LINE
  5
130
330
40
100
AcDbEntity
  8
Layer0$C$L0$V_DRAWING
100
AcDbLine
 10
-0.9807852804032304
 20
-0.1850903220161282
 30
0.0
 11
-0.930511885481972
 21
-0.1850903220161282
 31
0.0
  0
LINE
  5
131
330
40
100
AcDbEntity
  8
Layer0$C$L0$V_DRAWING
100
AcDbLine
 10
-0.9807852804032304
 20
0.1750903220161282
 30
0.0
 11
-0.8802384905607133
 21
0.1750903220161282
 31
0.0
  0
LINE
  5
132
330
40
100
AcDbEntity
  8
Layer0$C$L0$V_DRAWING
100
AcDbLine
 10
-0.9807852804032304
 20
-0.1750903220161282
 30
0.0
 11
-0.8802384905607133
 21
-0.1750903220161282
 31
0.0
  0
LINE
  5
133
330
40
100
AcDbEntity
  8
Layer0$C$L0$V_DRAWING
100
AcDbLine
 10
-0.9807852804032304
 20
0.1650903220161282
 30
0.0
 11
-0.8299650956394549
 21
0.1650903220161282
 31
0.0
  0
LINE
  5
134
330
40
100
AcDbEntity
  8
Layer0$C$L0$V_DRAWING
100
AcDbLine
 10
-0.9807852804032304
 20
-0.1650903220161282
 30
0.0
 11
-0.8299650956394549
 21
-0.1650903220161282
 31
0.0
  0
LINE
  5
135
330
40
100
AcDbEntity
  8
Layer0$C$L0$V_DRAWING
100
AcDbLine
 10
-0.9807852804032304
 20
0.1550903220161282
 30
0.0
 11
-0.7796917007181963
 21
0.1550903220161282
 31
0.0
  0
LINE
  5
136
330
40
100
AcDbEntity
  8
Layer0$C$L0$V_DRAWING
100
AcDbLine
 10
-0.9807852804032304
 20
-0.1550903220161282
 30
0.0
 11
-0.7796917007181963
 21
-0.1550903220161282
 31
0.0
  0
LINE
  5
137
330
40
100
AcDbEntity
  8
Layer0$C$L0$V_DRAWING
100
AcDbLine
 10
-0.9807852804032304
 20
0.1450903220161282
 30
0.0
 11
-0.7294183057969378
 21
0.1450903220161282
 31
0.0
  0
LINE
  5
138
330
40
100
AcDbEntity
  8
Layer0$C$L0$V_DRAWING
100
AcDbLine
 10
-0.9807852804032304
 20
-0.1450903220161282
 30
0.0
 11
-0.7294183057969378
 21
-0.1450903220161282
 31
0.0
  0
LINE
  5
139
330
40
100
AcDbEntity
  8
Layer0$C$L0$V_DRAWING
100
AcDbLine
 10
-0.9807852804032304
 20
0.1350903220161282
 30
0.0
 11
-0.6791449108756793
 21
0.1350903220161282
 31
0.0
  0
LINE
  5
13A
330
40
100
AcDbEntity
  8
Layer0$C$L0$V_DRAWING
100
AcDbLine
 10
-0.9807852804032304
 20
-0.1350903220161282
 30
0.0
 11
-0.6791449108756793
 21
-0.1350903220161282
 31
0.0
  0
LINE
  5
13B
330
40
100
AcDbEntity
  8
Layer0$C$L0$V_DRAWING
100
AcDbLine
 10
-0.9807852804032304
 20
0.1250903220161282
 30
0.0
 11
-0.6288715159544207
 21
0.1250903220161282
 31
0.0
  0
LINE
  5
13C
330
40
100
AcDbEntity
  8
Layer0$C$L0$V_DRAWING
100
AcDbLine
 10
-0.9807852804032304
 20
-0.1250903220161282
 30
0.0
 11
-0.6288715159544207
 21
-0.1250903220161282
 31
0.0
  0
LINE
  5
13D
330
40
100
AcDbEntity
  8
Layer0$C$L0$V_DRAWING
100
AcDbLine
 10
-0.9807852804032304
 20
0.1150903220161282
 30
0.0
 11
-0.5785981210331623
 21
0.1150903220161282
 31
0.0
  0
LINE
  5
13E
330
40
100
AcDbEntity
  8
Layer0$C$L0$V_DRAWING
100
AcDbLine
 10
-0.9807852804032304
 20
-0.1150903220161282
 30
0.0
 11
-0.5785981210331623
 21
-0.1150903220161282
 31
0.0
  0
LINE
  5
13F
330
40
100
AcDbEntity
  8
Layer0$C$L0$V_DRAWING
100
AcDbLine
 10
-0.9807852804032304
 20
0.1050903220161282
 30
0.0
 11
-0.5283247261119038
 21
0.1050903220161282
 31
0.0
  0
LINE
  5
140
330
40
100
AcDbEntity
  8
Layer0$C$L0$V_DRAWING
100
AcDbLine
 10
-0.9807852804032304
 20
-0.1050903220161282
 30
0.0
 11
-0.5283247261119038
 21
-0.1050903220161282
 31
0.0
  0
LINE
  5
141
330
40
100
AcDbEntity
  8
Layer0$C$L0$V_DRAWING
100
AcDbLine
 10
-0.9807852804032304
 20
0.0950903220161282
 30
0.0
 11
-0.4780513311906454
 21
0.0950903220161282
 31
0.0
  0
LINE
  5
142
330
40
100
AcDbEntity
  8
Layer0$C$L0$V_DRAWING
100
AcDbLine
 10
-0.9807852804032304
 20
-0.0950903220161282
 30
0.0
 11
-0.4780513311906454
 21
-0.0950903220161282
 31
0.0
  0
LINE
  5
143
330
40
100
AcDbEntity
  8
Layer0$C$L0$V_DRAWING
100
AcDbLine
 10
-0.9807852804032304
 20
0.0850903220161282
 30
0.0
 11
-0.4277779362693869
 21
0.0850903220161282
 31
0.0
  0
LINE
  5
144
330
40
100
AcDbEntity
  8
Layer0$C$L0$V_DRAWING
100
AcDbLine
 10
-0.9807852804032304
 20
-0.0850903220161282
 30
0.0
 11
-0.4277779362693869
 21
-0.0850903220161282
 31
0.0
  0
LINE
  5
145
330
40
100
AcDbEntity
  8
Layer0$C$L0$V_DRAWING
100
AcDbLine
 10
-0.9807852804032304
 20
0.0750903220161282
 30
0.0
 11
-0.3775045413481285
 21
0.0750903220161282
 31
0.0
  0
LINE
  5
146
330
40
100
AcDbEntity
  8
Layer0$C$L0$V_DRAWING
100
AcDbLine
 10
-0.9807852804032304
 20
-0.0750903220161282
 30
0.0
 11
-0.3775045413481285
 21
-0.0750903220161282
 31
0.0
  0
LINE
  5
147
330
40
100
AcDbEntity
  8
Layer0$C$L0$V_DRAWING
100
AcDbLine
 10
-0.9807852804032304
 20
0.0650903220161282
 30
0.0
 11
-0.32723114642687
 21
0.0650903220161282
 31
0.0
  0
LINE
  5
148
330
40
100
AcDbEntity
  8
Layer0$C$L0$V_DRAWING
100
AcDbLine
 10
-0.9807852804032304
 20
-0.0650903220161282
 30
0.0
 11
-0.32723114642687
 21
-0.0650903220161282
 31
0.0
  0
LINE
  5
149
330
40
100
AcDbEntity
  8
Layer0$C$L0$V_DRAWING
100
AcDbLine
 10
-0.9807852804032304
 20
0.0550903220161282
 30
0.0
 11
-0.2769577515056115
 21
0.0550903220161282
 31
0.0
  0
LINE
  5
14A
330
40
100
AcDbEntity
  8
Layer0$C$L0$V_DRAWING
100
AcDbLine
 10
-0.9807852804032304
 20
-0.0550903220161282
 30
0.0
 11
-0.2769577515056115
 21
-0.0550903220161282
 31
0.0
  0
LINE
  5
14B
330
40
100
AcDbEntity
  8
Layer0$C$L0$V_DRAWING
100
AcDbLine
 10
-0.9807852804032304
 20
0.0450903220161282
 30
0.0
 11
-0.2266843565843532
 21
0.0450903220161282
 31
0.0
  0
LINE
  5
14C
330
40
100
AcDbEntity
  8
Layer0$C$L0$V_DRAWING
100
AcDbLine
 10
-0.9807852804032304
 20
-0.0450903220161282
 30
0.0
 11
-0.2266843565843532
 21
-0.0450903220161282
 31
0.0
  0
LINE
  5
14D
330
40
100
AcDbEntity
  8
Layer0$C$L0$V_DRAWING
100
AcDbLine
 10
-0.9807852804032304
 20
0.0350903220161282
 30
0.0
 11
-0.1764109616630946
 21
0.0350903220161282
 31
0.0
  0
LINE
  5
14E
330
40
100
AcDbEntity
  8
Layer0$C$L0$V_DRAWING
100
AcDbLine
 10
-0.9807852804032304
 20
-0.0350903220161282
 30
0.0
 11
-0.1764109616630946
 21
-0.0350903220161282
 31
0.0
  0
LINE
  5
14F
330
40
100
AcDbEntity
  8
Layer0$C$L0$V_DRAWING
100
AcDbLine
 10
-0.9807852804032304
 20
0.0250903220161282
 30
0.0
 11
-0.1261375667418361
 21
0.0250903220161282
 31
0.0
  0
LINE
  5
150
330
40
100
AcDbEntity
  8
Layer0$C$L0$V_DRAWING
100
AcDbLine
 10
-0.9807852804032304
 20
-0.0250903220161282
 30
0.0
 11
-0.1261375667418361
 21
-0.0250903220161282
 31
0.0
  0
LINE
  5
151
330
40
100
AcDbEntity
  8
Layer0$C$L0$V_DRAWING
100
AcDbLine
 10
-0.9807852804032304
 20
0.0150903220161282
 30
0.0
 11
-0.0758641718205775
 21
0.0150903220161282
 31
0.0
  0
LINE
  5
152
330
40
100
AcDbEntity
  8
Layer0$C$L0$V_DRAWING
100
AcDbLine
 10
-0.9807852804032304
 20
-0.0150903220161282
 30
0.0
 11
-0.0758641718205775
 21
-0.0150903220161282
 31
0.0
  0
LINE
  5
153
330
40
100
AcDbEntity
  8
Layer0$C$L0$V_DRAWING
100
AcDbLine
 10
-0.9807852804032304
 20
0.0050903220161282
 30
0.0
 11
-0.0255907768993191
 21
0.0050903220161282
 31
0.0
  0
LINE
  5
154
330
40
100
AcDbEntity
  8
Layer0$C$L0$V_DRAWING
100
AcDbLine
 10
-0.9807852804032304
 20
-0.0050903220161282
 30
0.0
 11
-0.0255907768993191
 21
-0.0050903220161282
 31
0.0
  0
LINE
  5
155
330
40
100
AcDbEntity
  8
Layer0$C$L0$V_DRAWING
100
AcDbLine
 10
-0.9807852804032304
 20
-0.0049096779838718
 30
0.0
 11
0.0246826180219395
 21
-0.0049096779838718
 31
0.0
  0
LINE
  5
156
330
40
100
AcDbEntity
  8
Layer0$C$L0$V_DRAWING
100
AcDbLine
 10
-0.9807852804032304
 20
0.0049096779838718
 30
0.0
 11
0.0246826180219395
 21
0.0049096779838718
 31
0.0
  0
LINE
  5
157
330
40
100
AcDbEntity
  8
Layer0$C$L0$V_DRAWING
100
AcDbLine
 10
0.0
 20
0.0
 30
0.0
 11
-0.9914448613738104
 21
0.0
 31
0.0
  0
ENDBLK
  5
42
330
40
100
AcDbEntity
  8
0
100
AcDbBlockEnd
  0
BLOCK
  5
44
330
43
100
AcDbEntity
  8
0
100
AcDbBlockBegin
  2
*D2
 70
     1
 10
0.0
 20
0.0
 30
0.0
  3
*D2
  1

  0
SOLID
  5
70
330
43
100
AcDbEntity
  8
Layer0$C$L0$V_TOP
100
AcDbTrace
 10
-11.79083747597798
 20
10.36675298000993
 30
0.0
 11
-11.74891289508616
 21
10.43624312565233
 31
0.0
 12
-11.94455046228289
 22
10.50688260343527
 32
0.0
 13
-11.94455046228289
 23
10.50688260343527
 33
0.0
  0
LINE
  5
71
330
43
100
AcDbEntity
  8
Layer0$C$L0$V_TOP
100
AcDbLine
 10
-11.94455046228289
 20
10.50688260343527
 30
0.0
 11
-10.00772603352864
 21
9.338363647460938
 31
0.0
  0
LINE
  5
72
330
43
100
AcDbEntity
  8
Layer0$C$L0$V_TOP
100
AcDbLine
 10
-10.00772603352864
 20
9.338363647460938
 30
0.0
 11
-9.846859392573435
 21
9.338363647460938
 31
0.0
  0
ENDBLK
  5
45
330
43
100
AcDbEntity
  8
0
100
AcDbBlockEnd
  0
BLOCK
  5
47
330
46
100
AcDbEntity
  8
0
100
AcDbBlockBegin
  2
*D3
 70
     1
 10
0.0
 20
0.0
 30
0.0
  3
*D3
  1

  0
SOLID
  5
73
330
46
100
AcDbEntity
  8
Layer0$C$L0$V_TOP
100
AcDbTrace
 10
-7.716032296650024
 20
5.838036217241592
 30
0.0
 11
-7.797189864531013
 21
5.838036217241592
 31
0.0
 12
-7.756611080590519
 22
5.634032894195099
 32
0.0
 13
-7.756611080590519
 23
5.634032894195099
 33
0.0
  0
LINE
  5
74
330
46
100
AcDbEntity
  8
Layer0$C$L0$V_TOP
100
AcDbLine
 10
-7.756611080590519
 20
5.634032894195099
 30
0.0
 11
-7.756611080590519
 21
7.088992651243014
 31
0.0
  0
SOLID
  5
75
330
46
100
AcDbEntity
  8
Layer0$C$L0$V_TOP
100
AcDbTrace
 10
-7.797189864531013
 20
8.378398208363759
 30
0.0
 11
-7.716032296650024
 21
8.378398208363759
 31
0.0
 12
-7.756611080590519
 22
8.582401531410252
 32
0.0
 13
-7.756611080590519
 23
8.582401531410252
 33
0.0
  0
LINE
  5
76
330
46
100
AcDbEntity
  8
Layer0$C$L0$V_TOP
100
AcDbLine
 10
-7.756611080590519
 20
8.582401531410252
 30
0.0
 11
-7.756611080590519
 21
7.422325988015077
 31
0.0
  0
LINE
  5
77
330
46
100
AcDbEntity
  8
Layer0$C$L0$V_TOP
  6
GAP
100
AcDbLine
 10
-6.109692610021511
 20
5.634032894195101
 30
0.0
 11
-7.996611090127262
 21
5.634032894195099
 31
0.0
  0
LINE
  5
78
330
46
100
AcDbEntity
  8
Layer0$C$L0$V_TOP
  6
GAP
100
AcDbLine
 10
-4.293515426149732
 20
8.582401531410255
 30
0.0
 11
-7.996611090127262
 21
8.582401531410252
 31
0.0
  0
TEXT
  5
79
330
46
100
AcDbEntity
  8
Layer0$C$L0$V_TOP
100
AcDbText
 10
-8.067661293222141
 20
7.172325984576348
 30
0.0
 40
0.1666666701053962
  1
2.95
  7
CADRASTD
 72
     5
 11
-7.445560867958895
 21
7.172325984576348
 31
0.0
100
AcDbText
 73
   149
  0
ENDBLK
  5
48
330
46
100
AcDbEntity
  8
0
100
AcDbBlockEnd
  0
BLOCK
  5
4A
330
49
100
AcDbEntity
  8
0
100
AcDbBlockBegin
  2
*D4
 70
     1
 10
0.0
 20
0.0
 30
0.0
  3
*D4
  1

  0
SOLID
  5
9C
330
49
100
AcDbEntity
  8
Layer0$C$L0$V_TOP
100
AcDbTrace
 10
-7.081533383525853
 20
5.838036217241594
 30
0.0
 11
-7.162690951406843
 21
5.838036217241594
 31
1.0
 12
-7.122112167466348
 22
5.634032894195101
 32
-7.445560867958895
 13
-7.122112167466348
 23
5.634032894195101
 33
1.499736192423726E+21
  0
LINE
  5
9D
330
49
100
AcDbEntity
  8
Layer0$C$L0$V_TOP
100
AcDbLine
 10
-7.122112167466348
 20
5.634032894195101
 30
0.0
 11
-7.122112167466348
 21
6.021177474562873
 31
0.0
  0
SOLID
  5
9E
330
49
100
AcDbEntity
  8
Layer0$C$L0$V_TOP
100
AcDbTrace
 10
-7.162690951406843
 20
6.486028792234841
 30
0.0
 11
-7.081533383525853
 21
6.486028792234841
 31
0.0
 12
-7.122112167466348
 22
6.690032115281333
 32
-7.445560867958895
 13
-7.122112167466348
 23
6.690032115281333
 33
1.499736192423726E+21
  0
LINE
  5
9F
330
49
100
AcDbEntity
  8
Layer0$C$L0$V_TOP
100
AcDbLine
 10
-7.122112167466348
 20
6.690032115281333
 30
0.0
 11
-7.122112167466348
 21
6.354510811334936
 31
0.0
  0
LINE
  5
A0
330
49
100
AcDbEntity
  8
Layer0$C$L0$V_TOP
  6
GAP
100
AcDbLine
 10
-6.109692610021511
 20
5.634032894195101
 30
0.0
 11
-7.362112177003091
 21
5.634032894195101
 31
0.0
  0
LINE
  5
A1
330
49
100
AcDbEntity
  8
Layer0$C$L0$V_TOP
  6
GAP
100
AcDbLine
 10
-5.299692583497444
 20
6.690032115281333
 30
0.0
 11
-7.362112177003091
 21
6.690032115281333
 31
0.0
  0
TEXT
  5
A2
330
49
100
AcDbEntity
  8
Layer0$C$L0$V_TOP
100
AcDbText
 10
-7.43316238009797
 20
6.104510807896206
 30
0.0
 40
0.1666666701053962
  1
1.06
  7
CADRASTD
 72
     5
 11
-6.811061954834725
 21
6.104510807896206
 31
0.0
100
AcDbText
 73
    97
  0
ENDBLK
  5
4B
330
49
100
AcDbEntity
  8
0
100
AcDbBlockEnd
  0
BLOCK
  5
4D
330
4C
100
AcDbEntity
  8
0
100
AcDbBlockBegin
  2
*D5
 70
     1
 10
0.0
 20
0.0
 30
0.0
  3
*D5
  1

  0
SOLID
  5
A3
330
4C
100
AcDbEntity
  8
Layer0$C$L0$V_TOP
100
AcDbTrace
 10
-18.96405225853997
 20
10.28067034575157
 30
0.0
 11
-19.04520982642097
 21
10.28067034575157
 31
1.0
 12
-19.00463104248047
 22
10.07666702270508
 32
-6.811061954834725
 13
-19.00463104248047
 23
10.07666702270508
 33
1.499736192423726E+21
  0
LINE
  5
A4
330
4C
100
AcDbEntity
  8
Layer0$C$L0$V_TOP
100
AcDbLine
 10
-19.00463104248047
 20
10.07666702270508
 30
0.0
 11
-19.00463104248047
 21
11.90793024526956
 31
0.0
  0
SOLID
  5
A5
330
4C
100
AcDbEntity
  8
Layer0$C$L0$V_TOP
100
AcDbTrace
 10
-19.04520982642097
 20
12.87266369965858
 30
0.0
 11
-18.96405225853997
 21
12.87266369965858
 31
0.0
 12
-19.00463104248047
 22
13.07666702270508
 32
-6.811061954834725
 13
-19.00463104248047
 23
13.07666702270508
 33
1.499736192423726E+21
  0
LINE
  5
A6
330
4C
100
AcDbEntity
  8
Layer0$C$L0$V_TOP
100
AcDbLine
 10
-19.00463104248047
 20
13.07666702270508
 30
0.0
 11
-19.00463104248047
 21
12.24126358204163
 31
0.0
  0
LINE
  5
A7
330
4C
100
AcDbEntity
  8
Layer0$C$L0$V_TOP
  6
GAP
100
AcDbLine
 10
-17.44213829189539
 20
10.07666702270507
 30
0.0
 11
-19.24463105201721
 21
10.07666702270508
 31
0.0
  0
LINE
  5
A8
330
4C
100
AcDbEntity
  8
Layer0$C$L0$V_TOP
  6
GAP
100
AcDbLine
 10
-17.44213829189539
 20
13.07666702270507
 30
0.0
 11
-19.24463105201721
 21
13.07666702270508
 31
0.0
  0
TEXT
  5
A9
330
4C
100
AcDbEntity
  8
Layer0$C$L0$V_TOP
100
AcDbText
 10
-19.31568125511209
 20
11.9912635786029
 30
0.0
 40
0.1666666701053962
  1
3.00
  7
CADRASTD
 72
     5
 11
-18.69358082984884
 21
11.9912635786029
 31
0.0
100
AcDbText
 73
   102
  0
ENDBLK
  5
4E
330
4C
100
AcDbEntity
  8
0
100
AcDbBlockEnd
  0
BLOCK
  5
50
330
4F
100
AcDbEntity
  8
0
100
AcDbBlockBegin
  2
*D6
 70
     1
 10
0.0
 20
0.0
 30
0.0
  3
*D6
  1

  0
SOLID
  5
AA
330
4F
100
AcDbEntity
  8
Layer0$C$L0$V_TOP
100
AcDbTrace
 10
-14.85609667695351
 20
13.64619820377109
 30
0.0
 11
-14.85609667695351
 21
13.72735577165208
 31
1.0
 12
-15.0601
 22
13.68677698771159
 32
-18.69358082984884
 13
-15.0601
 23
13.68677698771159
 33
1.499736192423726E+21
  0
LINE
  5
AB
330
4F
100
AcDbEntity
  8
Layer0$C$L0$V_TOP
100
AcDbLine
 10
-15.0601
 20
13.68677698771159
 30
0.0
 11
-13.95452177152038
 21
13.68677698771159
 31
0.0
  0
SOLID
  5
AC
330
4F
100
AcDbEntity
  8
Layer0$C$L0$V_TOP
100
AcDbTrace
 10
-12.26410332304649
 20
13.72735577165208
 30
0.0
 11
-12.26410332304649
 21
13.64619820377109
 31
0.0
 12
-12.0601
 22
13.68677698771159
 32
-18.69358082984884
 13
-12.0601
 23
13.68677698771159
 33
1.499736192423726E+21
  0
LINE
  5
AD
330
4F
100
AcDbEntity
  8
Layer0$C$L0$V_TOP
100
AcDbLine
 10
-12.0601
 20
13.68677698771159
 30
0.0
 11
-13.16575467959046
 21
13.68677698771159
 31
0.0
  0
LINE
  5
AE
330
4F
100
AcDbEntity
  8
Layer0$C$L0$V_TOP
  6
GAP
100
AcDbLine
 10
-15.0601
 20
13.15093350149012
 30
0.0
 11
-15.0601
 21
13.92677699724833
 31
0.0
  0
LINE
  5
AF
330
4F
100
AcDbEntity
  8
Layer0$C$L0$V_TOP
  6
GAP
100
AcDbLine
 10
-12.0601
 20
13.15093350149012
 30
0.0
 11
-12.0601
 21
13.92677699724833
 31
0.0
  0
TEXT
  5
B0
330
4F
100
AcDbEntity
  8
Layer0$C$L0$V_TOP
100
AcDbText
 10
-13.87118843818704
 20
13.60344365265889
 30
0.0
 40
0.1666666701053962
  1
3.00
  7
CADRASTD
 72
     5
 11
-13.2490880129238
 21
13.60344365265889
 31
0.0
100
AcDbText
 73
   187
  0
ENDBLK
  5
51
330
4F
100
AcDbEntity
  8
0
100
AcDbBlockEnd
  0
BLOCK
  5
53
330
52
100
AcDbEntity
  8
0
100
AcDbBlockBegin
  2
*D7
 70
     1
 10
0.0
 20
0.0
 30
0.0
  3
*D7
  1

  0
SOLID
  5
B1
330
52
100
AcDbEntity
  8
Layer0$C$L0$V_TOP
100
AcDbTrace
 10
-17.35613537934609
 20
14.43489067813632
 30
0.0
 11
-17.35613537934609
 21
14.51604824601731
 31
1.0
 12
-17.56013870239258
 22
14.47546946207682
 32
-13.2490880129238
 13
-17.56013870239258
 23
14.47546946207682
 33
1.499736192423726E+21
  0
LINE
  5
B2
330
52
100
AcDbEntity
  8
Layer0$C$L0$V_TOP
100
AcDbLine
 10
-17.56013870239258
 20
14.47546946207682
 30
0.0
 11
-14.02894444887837
 21
14.47546946207682
 31
0.0
  0
SOLID
  5
B3
330
52
100
AcDbEntity
  8
Layer0$C$L0$V_TOP
100
AcDbTrace
 10
-9.764141071764755
 20
14.51604824601731
 30
0.0
 11
-9.764141071764755
 21
14.43489067813632
 31
0.0
 12
-9.560137748718262
 22
14.47546946207682
 32
-13.2490880129238
 13
-9.560137748718262
 23
14.47546946207682
 33
1.499736192423726E+21
  0
LINE
  5
B4
330
52
100
AcDbEntity
  8
Layer0$C$L0$V_TOP
100
AcDbLine
 10
-9.560137748718262
 20
14.47546946207682
 30
0.0
 11
-13.24017735694845
 21
14.47546946207682
 31
0.0
  0
LINE
  5
B5
330
52
100
AcDbEntity
  8
Layer0$C$L0$V_TOP
  6
GAP
100
AcDbLine
 10
-17.56013870239258
 20
12.95866661220789
 30
0.0
 11
-17.56013870239258
 21
14.71546947161356
 31
0.0
  0
LINE
  5
B6
330
52
100
AcDbEntity
  8
Layer0$C$L0$V_TOP
  6
GAP
100
AcDbLine
 10
-9.560137748718262
 20
12.95866661220789
 30
0.0
 11
-9.560137748718262
 21
14.71546947161356
 31
0.0
  0
TEXT
  5
B7
330
52
100
AcDbEntity
  8
Layer0$C$L0$V_TOP
100
AcDbText
 10
-13.94561111554503
 20
14.39213612702412
 30
0.0
 40
0.1666666701053962
  1
8.00
  7
CADRASTD
 72
     5
 11
-13.32351069028179
 21
14.39213612702412
 31
0.0
100
AcDbText
 73
   187
  0
ENDBLK
  5
54
330
52
100
AcDbEntity
  8
0
100
AcDbBlockEnd
  0
BLOCK
  5
56
330
55
100
AcDbEntity
  8
0
100
AcDbBlockBegin
  2
*D8
 70
     1
 10
0.0
 20
0.0
 30
0.0
  3
*D8
  1

  0
SOLID
  5
B8
330
55
100
AcDbEntity
  8
Layer0$C$L0$V_TOP
100
AcDbTrace
 10
-17.35613537934609
 20
13.64619820377109
 30
0.0
 11
-17.35613537934609
 21
13.72735577165208
 31
1.0
 12
-17.56013870239258
 22
13.68677698771159
 32
-13.32351069028179
 13
-17.56013870239258
 23
13.68677698771159
 33
1.499736192423726E+21
  0
LINE
  5
B9
330
55
100
AcDbEntity
  8
Layer0$C$L0$V_TOP
100
AcDbLine
 10
-17.56013870239258
 20
13.68677698771159
 30
0.0
 11
-16.69658132021626
 21
13.68677698771159
 31
0.0
  0
SOLID
  5
BA
330
55
100
AcDbEntity
  8
Layer0$C$L0$V_TOP
100
AcDbTrace
 10
-15.26410332304649
 20
13.72735577165208
 30
0.0
 11
-15.26410332304649
 21
13.64619820377109
 31
0.0
 12
-15.0601
 22
13.68677698771159
 32
-13.32351069028179
 13
-15.0601
 23
13.68677698771159
 33
1.499736192423726E+21
  0
LINE
  5
BB
330
55
100
AcDbEntity
  8
Layer0$C$L0$V_TOP
100
AcDbLine
 10
-15.0601
 20
13.68677698771159
 30
0.0
 11
-15.90781422828634
 21
13.68677698771159
 31
0.0
  0
LINE
  5
BC
330
55
100
AcDbEntity
  8
Layer0$C$L0$V_TOP
  6
GAP
100
AcDbLine
 10
-17.56013870239258
 20
12.95866661220789
 30
0.0
 11
-17.56013870239258
 21
13.92677699724833
 31
0.0
  0
LINE
  5
BD
330
55
100
AcDbEntity
  8
Layer0$C$L0$V_TOP
  6
GAP
100
AcDbLine
 10
-15.0601
 20
13.15093350149012
 30
0.0
 11
-15.0601
 21
13.92677699724833
 31
0.0
  0
TEXT
  5
BE
330
55
100
AcDbEntity
  8
Layer0$C$L0$V_TOP
100
AcDbText
 10
-16.61324798688293
 20
13.60344365265889
 30
0.0
 40
0.1666666701053962
  1
2.50
  7
CADRASTD
 72
     5
 11
-15.99114756161968
 21
13.60344365265889
 31
0.0
100
AcDbText
 73
   187
  0
ENDBLK
  5
57
330
55
100
AcDbEntity
  8
0
100
AcDbBlockEnd
  0
BLOCK
  5
59
330
58
100
AcDbEntity
  8
0
100
AcDbBlockBegin
  2
*D9
 70
     1
 10
0.0
 20
0.0
 30
0.0
  3
*D9
  1

  0
SOLID
  5
BF
330
58
100
AcDbEntity
  8
Layer0$C$L0$V_TOP
100
AcDbTrace
 10
-18.39569785335781
 20
12.37259667695351
 30
0.0
 11
-18.31454028547682
 21
12.37259667695351
 31
1.0
 12
-18.35511906941732
 22
12.5766
 32
-15.99114756161968
 13
-18.35511906941732
 23
12.5766
 33
1.499736192423726E+21
  0
LINE
  5
C0
330
58
100
AcDbEntity
  8
Layer0$C$L0$V_TOP
100
AcDbLine
 10
-18.35511906941732
 20
12.5766
 30
0.0
 11
-18.35511906941732
 21
11.84691670907613
 31
0.0
  0
SOLID
  5
C1
330
58
100
AcDbEntity
  8
Layer0$C$L0$V_TOP
100
AcDbTrace
 10
-18.31454028547682
 20
10.78060332304649
 30
0.0
 11
-18.39569785335781
 21
10.78060332304649
 31
0.0
 12
-18.35511906941732
 22
10.5766
 32
-15.99114756161968
 13
-18.35511906941732
 23
10.5766
 33
1.499736192423726E+21
  0
LINE
  5
C2
330
58
100
AcDbEntity
  8
Layer0$C$L0$V_TOP
100
AcDbLine
 10
-18.35511906941732
 20
10.5766
 30
0.0
 11
-18.35511906941732
 21
11.51358337230407
 31
0.0
  0
LINE
  5
C3
330
58
100
AcDbEntity
  8
Layer0$C$L0$V_TOP
  6
GAP
100
AcDbLine
 10
-15.63443350149012
 20
12.5766
 30
0.0
 11
-18.59511907895406
 21
12.5766
 31
0.0
  0
LINE
  5
C4
330
58
100
AcDbEntity
  8
Layer0$C$L0$V_TOP
  6
GAP
100
AcDbLine
 10
-15.63443350149012
 20
10.5766
 30
0.0
 11
-18.59511907895406
 21
10.5766
 31
0.0
  0
TEXT
  5
C5
330
58
100
AcDbEntity
  8
Layer0$C$L0$V_TOP
100
AcDbText
 10
-18.66616928204894
 20
11.5969167056374
 30
0.0
 40
0.1666666701053962
  1
2.00
  7
CADRASTD
 72
     5
 11
-18.0440688567857
 21
11.5969167056374
 31
0.0
100
AcDbText
 73
   125
  0
ENDBLK
  5
5A
330
58
100
AcDbEntity
  8
0
100
AcDbBlockEnd
  0
BLOCK
  5
5C
330
5B
100
AcDbEntity
  8
0
100
AcDbBlockBegin
  2
*D10
 70
     1
 10
0.0
 20
0.0
 30
0.0
  3
*D10
  1

  0
SOLID
  5
C6
330
5B
100
AcDbEntity
  8
Layer0$C$L0$V_TOP
100
AcDbTrace
 10
-18.31454028547682
 20
13.28067034575157
 30
0.0
 11
-18.39569785335781
 21
13.28067034575157
 31
1.0
 12
-18.35511906941732
 22
13.07666702270508
 32
-18.0440688567857
 13
-18.35511906941732
 23
13.07666702270508
 33
1.499736192423726E+21
  0
LINE
  5
C7
330
5B
100
AcDbEntity
  8
Layer0$C$L0$V_TOP
100
AcDbLine
 10
-18.35511906941732
 20
13.07666702270508
 30
0.0
 11
-18.35511906941732
 21
13.76367746988932
 31
0.0
  0
SOLID
  5
C8
330
5B
100
AcDbEntity
  8
Layer0$C$L0$V_TOP
100
AcDbTrace
 10
-18.39569785335781
 20
12.37259667695351
 30
0.0
 11
-18.31454028547682
 21
12.37259667695351
 31
0.0
 12
-18.35511906941732
 22
12.5766
 32
-18.0440688567857
 13
-18.35511906941732
 23
12.5766
 33
1.499736192423726E+21
  0
LINE
  5
C9
330
5B
100
AcDbEntity
  8
Layer0$C$L0$V_TOP
100
AcDbLine
 10
-18.35511906941732
 20
12.5766
 30
0.0
 11
-18.35511906941732
 21
12.04326665871938
 31
0.0
  0
LINE
  5
CA
330
5B
100
AcDbEntity
  8
Layer0$C$L0$V_TOP
  6
GAP
100
AcDbLine
 10
-17.44213829189539
 20
13.07666702270508
 30
0.0
 11
-18.59511907895406
 21
13.07666702270508
 31
0.0
  0
LINE
  5
CB
330
5B
100
AcDbEntity
  8
Layer0$C$L0$V_TOP
  6
GAP
100
AcDbLine
 10
-15.63443350149012
 20
12.5766
 30
0.0
 11
-18.59511907895406
 21
12.5766
 31
0.0
  0
TEXT
  5
CC
330
5B
100
AcDbEntity
  8
Layer0$C$L0$V_TOP
100
AcDbText
 10
-18.582835947456
 20
13.84701080322265
 30
0.0
 40
0.1666666666666667
  1
.50
  7
CADRASTD
 72
     5
 11
-18.12740219137864
 21
13.84701080322265
 31
0.0
100
AcDbText
 73
   125
  0
ENDBLK
  5
5D
330
5B
100
AcDbEntity
  8
0
100
AcDbBlockEnd
  0
BLOCK
  5
5F
330
5E
100
AcDbEntity
  8
0
100
AcDbBlockBegin
  2
SIDNUT_312
 70
     0
 10
0.0
 20
0.0
 30
0.0
  3
SIDNUT_312
  1

  0
ARC
  5
158
330
5E
100
AcDbEntity
  8
Layer0$C$L0$V_DRAWING
100
AcDbCircle
 10
0.1504551817665639
 20
-0.21650625
 30
0.0
 40
0.1277896182334362
100
AcDbArc
 50
325.615304698213
 51
34.38469530178865
  0
ARC
  5
159
330
5E
100
AcDbEntity
  8
Layer0$C$L0$V_DRAWING
100
AcDbCircle
 10
-0.1994195759337445
 20
0.0
 30
0.0
 40
0.4776643759337445
100
AcDbArc
 50
342.4118066081681
 51
17.58819339183343
  0
ARC
  5
15A
330
5E
100
AcDbEntity
  8
Layer0$C$L0$V_DRAWING
100
AcDbCircle
 10
0.1504551817665639
 20
0.21650625
 30
0.0
 40
0.1277896182334361
100
AcDbArc
 50
325.615304698213
 51
34.38469530178865
  0
ARC
  5
15B
330
5E
100
AcDbEntity
  8
Layer0$C$L0$V_DRAWING
100
AcDbCircle
 10
0.1277896182334362
 20
-0.21650625
 30
0.0
 40
0.1277896182334362
100
AcDbArc
 50
145.6153046982125
 51
214.3846953017883
  0
ARC
  5
15C
330
5E
100
AcDbEntity
  8
Layer0$C$L0$V_DRAWING
100
AcDbCircle
 10
0.4776643759337447
 20
0.0
 30
0.0
 40
0.4776643759337447
100
AcDbArc
 50
162.4118066081678
 51
197.5881933918331
  0
ARC
  5
15D
330
5E
100
AcDbEntity
  8
Layer0$C$L0$V_DRAWING
100
AcDbCircle
 10
0.1277896182334362
 20
0.21650625
 30
0.0
 40
0.1277896182334362
100
AcDbArc
 50
145.6153046982125
 51
214.3846953017883
  0
LINE
  5
15E
330
5E
100
AcDbEntity
  8
Layer0$C$L0$V_DRAWING
100
AcDbLine
 10
0.022329398
 20
-0.1443375
 30
0.0
 11
0.255915402
 21
-0.1443375
 31
0.0
  0
LINE
  5
15F
330
5E
100
AcDbEntity
  8
Layer0$C$L0$V_DRAWING
100
AcDbLine
 10
0.022329398
 20
0.1443375
 30
0.0
 11
0.255915402
 21
0.1443375
 31
0.0
  0
LINE
  5
160
330
5E
100
AcDbEntity
  8
Layer0$C$L0$V_DRAWING
100
AcDbLine
 10
0.022329398
 20
-0.288675
 30
0.0
 11
0.0
 21
-0.25
 31
0.0
  0
LINE
  5
161
330
5E
100
AcDbEntity
  8
Layer0$C$L0$V_DRAWING
100
AcDbLine
 10
0.255915402
 20
-0.288675
 30
0.0
 11
0.022329398
 21
-0.288675
 31
0.0
  0
LINE
  5
162
330
5E
100
AcDbEntity
  8
Layer0$C$L0$V_DRAWING
100
AcDbLine
 10
0.2782448
 20
-0.25
 30
0.0
 11
0.255915402
 21
-0.288675
 31
0.0
  0
LINE
  5
163
330
5E
100
AcDbEntity
  8
Layer0$C$L0$V_DRAWING
100
AcDbLine
 10
0.2782448
 20
0.25
 30
0.0
 11
0.2782448
 21
-0.25
 31
0.0
  0
LINE
  5
164
330
5E
100
AcDbEntity
  8
Layer0$C$L0$V_DRAWING
100
AcDbLine
 10
0.255915402
 20
0.288675
 30
0.0
 11
0.2782448
 21
0.25
 31
0.0
  0
LINE
  5
165
330
5E
100
AcDbEntity
  8
Layer0$C$L0$V_DRAWING
100
AcDbLine
 10
0.022329398
 20
0.288675
 30
0.0
 11
0.255915402
 21
0.288675
 31
0.0
  0
LINE
  5
166
330
5E
100
AcDbEntity
  8
Layer0$C$L0$V_DRAWING
100
AcDbLine
 10
0.0
 20
0.25
 30
0.0
 11
0.022329398
 21
0.288675
 31
0.0
  0
ENDBLK
  5
60
330
5E
100
AcDbEntity
  8
0
100
AcDbBlockEnd
  0
BLOCK
  5
62
330
61
100
AcDbEntity
  8
0
100
AcDbBlockBegin
  2
TOPSET_75
 70
     0
 10
0.0
 20
0.0
 30
0.0
  3
TOPSET_75
  1

  0
LINE
  5
167
330
61
100
AcDbEntity
  8
Layer0$C$L0$V_DRAWING
100
AcDbLine
 10
0.1874999562890523
 20
-0.1082532007095822
 30
0.0
 11
0.0000000437109477
 21
-0.2165063257095822
 31
0.0
  0
LINE
  5
168
330
61
100
AcDbEntity
  8
Layer0$C$L0$V_DRAWING
100
AcDbLine
 10
-0.0000000437109478
 20
-0.2165063257095822
 30
0.0
 11
-0.1874999562890523
 21
-0.1082532007095822
 31
0.0
  0
LINE
  5
169
330
61
100
AcDbEntity
  8
Layer0$C$L0$V_DRAWING
100
AcDbLine
 10
-0.1875
 20
-0.108253125
 30
0.0
 11
-0.1875
 21
0.108253125
 31
0.0
  0
LINE
  5
16A
330
61
100
AcDbEntity
  8
Layer0$C$L0$V_DRAWING
100
AcDbLine
 10
-0.1874999562890522
 20
0.1082532007095823
 30
0.0
 11
-0.0000000437109477
 21
0.2165063257095822
 31
0.0
  0
LINE
  5
16B
330
61
100
AcDbEntity
  8
Layer0$C$L0$V_DRAWING
100
AcDbLine
 10
0.0000000437109477
 20
0.2165063257095822
 30
0.0
 11
0.1874999562890523
 21
0.1082532007095822
 31
0.0
  0
LINE
  5
16C
330
61
100
AcDbEntity
  8
Layer0$C$L0$V_DRAWING
100
AcDbLine
 10
0.1875
 20
0.108253125
 30
0.0
 11
0.1875
 21
-0.108253125
 31
0.0
  0
CIRCLE
  5
16D
330
61
100
AcDbEntity
  8
Layer0$C$L0$V_DRAWING
  6
DASHED
100
AcDbCircle
 10
0.0
 20
0.0
 30
0.0
 40
0.375
  0
CIRCLE
  5
16E
330
61
100
AcDbEntity
  8
Layer0$C$L0$V_DRAWING
100
AcDbCircle
 10
0.0
 20
0.0
 30
0.0
 40
0.3
  0
ENDBLK
  5
63
330
61
100
AcDbEntity
  8
0
100
AcDbBlockEnd
  0
ENDSEC
  0
SECTION
  2
ENTITIES
  0
POINT
  5
16F
330
1F
100
AcDbEntity
  8
Layer0$C$L0$V_TOP
100
AcDbPoint
 10
0.5784494876861572
 20
12.44769191741943
 30
0.0
  0
POINT
  5
170
330
1F
100
AcDbEntity
  8
Layer0$C$L0$V_TOP
100
AcDbPoint
 10
-8.87155065536499
 20
12.44769191741943
 30
0.0
  0
POINT
  5
171
330
1F
100
AcDbEntity
  8
Layer0$C$L0$V_TOP
100
AcDbPoint
 10
-4.146550583839416
 20
12.44769191741943
 30
0.0
  0
MTEXT
  5
172
330
1F
100
AcDbEntity
  8
Layer0$C$L0$V_TOP
100
AcDbMText
 10
-1.536297475186814
 20
1.874418748098887
 30
0.0
 40
0.1666666666666667
 41
3.433150634116036
 46
0.0
 71
     7
 72
     1
  1
05B0505     00
  7
CADRASTD
 73
     1
 44
0.8999999999999998
  0
MTEXT
  5
173
330
1F
100
AcDbEntity
  8
Layer0$C$L0$V_TOP
100
AcDbMText
 10
-5.373746450091176
 20
2.76035633731567
 30
0.0
 40
0.1666666666666667
 41
2.933150634116036
 46
0.0
 71
     7
 72
     1
  1
KDS    12/94
  7
CADRASTD
 73
     1
 44
0.8999999999999998
  0
MTEXT
  5
174
330
1F
100
AcDbEntity
  8
Layer0$C$L0$V_TOP
100
AcDbMText
 10
-18.96173477172852
 20
4.03623898824056
 30
0.0
 40
0.1666666666666667
 41
7.433150634116037
 46
0.0
 71
     7
 72
     1
  1
4. USES 5/16 HEX SOCKET WRENCH
  7
CADRASTD
 73
     1
 44
0.8999999999999998
  0
MTEXT
  5
175
330
1F
100
AcDbEntity
  8
Layer0$C$L0$V_TOP
100
AcDbMText
 10
-6.479198805491127
 20
11.74361505874372
 30
0.0
 40
0.1666666666666667
 41
0.9331506341160365
 46
0.0
 71
     7
 72
     1
  1
200K
  7
CADRASTD
 73
     1
 44
0.8999999999999998
  0
MTEXT
  5
176
330
1F
100
AcDbEntity
  8
Layer0$C$L0$V_TOP
100
AcDbMText
 10
-6.690821679433186
 20
11.98126815526064
 30
0.0
 40
0.1666666666666667
 41
1.683150634116036
 46
0.0
 71
     7
 72
     1
  1
RMS SYM\PRATING
  7
CADRASTD
 73
     1
 44
0.8999999999999998
  0
LINE
  5
177
330
1F
100
AcDbEntity
  8
Layer0$C$L0$V_TOP
100
AcDbLine
 10
-6.736825656890868
 20
11.69769191741943
 30
0.0
 11
-6.736825656890868
 21
12.44769191742009
 31
0.0
  0
MTEXT
  5
178
330
1F
100
AcDbEntity
  8
Layer0$C$L0$V_TOP
100
AcDbMText
 10
-5.332359663645425
 20
11.73770990737653
 30
0.0
 40
0.1666666666666667
 41
0.683150634116036
 46
0.0
 71
     7
 72
     1
  1
375
  7
CADRASTD
 73
     1
 44
0.8999999999999998
  0
MTEXT
  5
179
330
1F
100
AcDbEntity
  8
Layer0$C$L0$V_TOP
100
AcDbMText
 10
-1.473862520853678
 20
11.73441400893903
 30
0.0
 40
0.1666666666666667
 41
0.933150634116036
 46
0.0
 71
     7
 72
     1
  1
IZLT
  7
CADRASTD
 73
     1
 44
0.8999999999999998
  0
TEXT
  5
17A
330
1F
100
AcDbEntity
  8
Layer0$C$L0$V_TOP
100
AcDbText
 10
-0.5629649480183911
 20
11.73441400893903
 30
0.0
 40
0.1666666666666667
  1
LR32169
 41
0.9243874022911299
  7
CADRASTD
 72
     5
 11
0.4742904265559131
 21
11.73441400893903
 31
0.0
100
AcDbText
 73
   248
  0
MTEXT
  5
17B
330
1F
100
AcDbEntity
  8
Layer0$C$L0$V_TOP
100
AcDbMText
 10
-2.734397602081298
 20
11.74361505874372
 30
0.0
 40
0.1666666666666667
 41
1.433150634116036
 46
0.0
 71
     7
 72
     1
  1
E52283
  7
CADRASTD
 73
     1
 44
0.8999999999999998
  0
MTEXT
  5
17C
330
1F
100
AcDbEntity
  8
Layer0$C$L0$V_TOP
100
AcDbMText
 10
-1.841901493072509
 20
12.24046920506533
 30
0.0
 40
0.1666666666666667
 41
0.4331506341160359
 46
0.0
 71
     7
 72
     1
  1
UL
  7
CADRASTD
 73
     1
 44
0.8999999999999998
  0
MTEXT
  5
17D
330
1F
100
AcDbEntity
  8
Layer0$C$L0$V_TOP
100
AcDbMText
 10
-0.231729062398274
 20
12.24966898330426
 30
0.0
 40
0.1666666666666667
 41
0.6831506341160359
 46
0.0
 71
     7
 72
     1
  1
CSA
  7
CADRASTD
 73
     1
 44
0.8999999999999998
  0
TEXT
  5
17E
330
1F
100
AcDbEntity
  8
Layer0$C$L0$V_TOP
100
AcDbText
 10
-0.5238509496053052
 20
12.00171238947288
 30
0.0
 40
0.1666666666666667
  1
REPORT NO.
 41
0.6303288963216389
  7
CADRASTD
 72
     5
 11
0.4986057278004121
 21
12.00171238947288
 31
0.0
100
AcDbText
 73
   248
  0
TEXT
  5
17F
330
1F
100
AcDbEntity
  8
Layer0$C$L0$V_TOP
100
AcDbText
 10
-1.623270861307779
 20
12.01545547215517
 30
0.0
 40
0.1666666666666667
  1
GUIDE NO.
 41
0.6969232350458492
  7
CADRASTD
 72
     5
 11
-0.6089453606216602
 21
12.01545547215517
 31
0.0
100
AcDbText
 73
   248
  0
TEXT
  5
180
330
1F
100
AcDbEntity
  8
Layer0$C$L0$V_TOP
100
AcDbText
 10
-2.777661673227945
 20
12.01545547215517
 30
0.0
 40
0.1666666666666667
  1
FILE NO.
 41
0.7792512415007264
  7
CADRASTD
 72
     5
 11
-1.773388431884045
 21
12.01545547215517
 31
0.0
100
AcDbText
 73
   248
  0
LINE
  5
181
330
1F
100
AcDbEntity
  8
Layer0$C$L0$V_TOP
100
AcDbLine
 10
0.5784494876861572
 20
11.69769191741943
 30
0.0
 11
0.5784494876861572
 21
12.44769191741943
 31
0.0
  0
LINE
  5
182
330
1F
100
AcDbEntity
  8
Layer0$C$L0$V_TOP
100
AcDbLine
 10
-0.6215505599975586
 20
11.69769191741943
 30
0.0
 11
-0.6215505599975586
 21
12.44769191741943
 31
0.0
  0
LINE
  5
183
330
1F
100
AcDbEntity
  8
Layer0$C$L0$V_TOP
100
AcDbLine
 10
-1.721550583839417
 20
11.69769191741943
 30
0.0
 11
-1.721550583839417
 21
12.19935757685081
 31
0.0
  0
LINE
  5
184
330
1F
100
AcDbEntity
  8
Layer0$C$L0$V_TOP
100
AcDbLine
 10
-3.491892668914795
 20
6.534032344818115
 30
0.0
 11
-3.491892668914795
 21
6.63903188705469
 31
0.0
  0
TEXT
  5
185
330
1F
100
AcDbEntity
  8
Layer0$C$L0$V_TOP
100
AcDbText
 10
-4.432144193134263
 20
14.38178803067565
 30
0.0
 40
0.1666666666666667
  1
12/15/94
 41
0.5664755592782985
  7
CADRASTD
 72
     5
 11
-3.702089182937572
 21
14.38178803067565
 31
0.0
100
AcDbText
 73
   248
  0
MTEXT
  5
186
330
1F
100
AcDbEntity
  8
Layer0$C$L0$V_TOP
100
AcDbMText
 10
-4.930894888124499
 20
14.38178803067565
 30
0.0
 40
0.1666666666666667
 41
4.683150634116036
 46
0.0
 71
     7
 72
     1
  1
00         RELEASED
  7
CADRASTD
 73
     1
 44
0.8999999999999998
  0
MTEXT
  5
187
330
1F
100
AcDbEntity
  8
Layer0$C$L0$V_TOP
100
AcDbMText
 10
-1.591278394063314
 20
3.849059740702311
 30
0.0
 40
0.1666666666666667
 41
2.683150634116036
 46
0.0
 71
     7
 72
     1
  1
P/N  22001R
  7
CADRASTD
 73
     1
 44
0.8999999999999998
  0
MTEXT
  5
188
330
1F
100
AcDbEntity
  8
Layer0$C$L0$V_TOP
100
AcDbMText
 10
-5.711167812002334
 20
1.874418748098887
 30
0.0
 40
0.1666666666666667
 41
2.433150634116036
 46
0.0
 71
     7
 72
     1
  1
FUSE BLOCK
  7
CADRASTD
 73
     1
 44
0.8999999999999998
  0
TEXT
  5
189
330
1F
100
AcDbEntity
  8
Layer0$C$L0$V_TOP
100
AcDbText
 10
-4.481727949778238
 20
11.73790700006859
 30
0.0
 40
0.1666666666666667
  1
60/75
 41
0.8295196391091666
  7
CADRASTD
 72
     5
 11
-3.827430230429325
 21
11.73790700006859
 31
0.0
100
AcDbText
 73
   254
  0
MTEXT
  5
18A
330
1F
100
AcDbEntity
  8
Layer0$C$L0$V_TOP
100
AcDbMText
 10
-7.4732107480367
 20
11.74161107111351
 30
0.0
 40
0.1666666666666667
 41
0.683150634116036
 46
0.0
 71
     7
 72
     1
  1
BOX
  7
CADRASTD
 73
     1
 44
0.8999999999999998
  0
MTEXT
  5
18B
330
1F
100
AcDbEntity
  8
Layer0$C$L0$V_TOP
100
AcDbMText
 10
-8.790014362335203
 20
11.75415252415713
 30
0.0
 40
0.1666666666666667
 41
1.433150634116036
 46
0.0
 71
     7
 72
     1
  1
22001R
  7
CADRASTD
 73
     1
 44
0.8999999999999998
  0
MTEXT
  5
18C
330
1F
100
AcDbEntity
  8
Layer0$C$L0$V_TOP
100
AcDbMText
 10
-4.341734600067138
 20
11.99870132176455
 30
0.0
 40
0.1666666666666667
 41
1.933150634116036
 46
0.0
 71
     7
 72
     1
  1
C%%d  TYPE
  7
CADRASTD
 73
     1
 44
0.8999999999999998
  0
MTEXT
  5
18D
330
1F
100
AcDbEntity
  8
Layer0$C$L0$V_TOP
100
AcDbMText
 10
-3.702144336700439
 20
11.74161107111351
 30
0.0
 40
0.1666666666666667
 41
1.183150634116036
 46
0.0
 71
     7
 72
     1
  1
AL/CU
  7
CADRASTD
 73
     1
 44
0.8999999999999998
  0
LINE
  5
18E
330
1F
100
AcDbEntity
  8
Layer0$C$L0$V_TOP
100
AcDbLine
 10
-4.521550607681274
 20
12.19935757685081
 30
0.0
 11
0.5784494876861572
 21
12.19935757685081
 31
0.0
  0
MTEXT
  5
18F
330
1F
100
AcDbEntity
  8
Layer0$C$L0$V_TOP
100
AcDbMText
 10
-4.065833123524983
 20
12.23698002863304
 30
0.0
 40
0.1666666666666667
 41
0.9331506341160358
 46
0.0
 71
     7
 72
     1
  1
WIRE
  7
CADRASTD
 73
     1
 44
0.8999999999999998
  0
TEXT
  5
190
330
1F
100
AcDbEntity
  8
Layer0$C$L0$V_TOP
100
AcDbText
 10
-5.40771837234497
 20
12.26206293472028
 30
0.0
 40
0.1666666666666667
  1
TORQUE
 41
0.6577750675495413
  7
CADRASTD
 72
     5
 11
-4.779257951562208
 21
12.26206293472028
 31
0.0
100
AcDbText
 73
   248
  0
TEXT
  5
191
330
1F
100
AcDbEntity
  8
Layer0$C$L0$V_TOP
100
AcDbText
 10
-5.40771837234497
 20
12.01206293472028
 30
0.0
 40
0.1666666666666667
  1
(IN-LBS)
 41
0.6577750675495413
  7
CADRASTD
 72
     5
 11
-4.559999595523936
 21
12.01206293472028
 31
0.0
100
AcDbText
 73
   248
  0
MTEXT
  5
192
330
1F
100
AcDbEntity
  8
Layer0$C$L0$V_TOP
100
AcDbMText
 10
-7.523374652862548
 20
11.99325139093773
 30
0.0
 40
0.1666666666666667
 41
0.9331506341160365
 46
0.0
 71
     7
 72
     1
  1
CONN\PTYPE
  7
CADRASTD
 73
     1
 44
0.8999999999999998
  0
MTEXT
  5
193
330
1F
100
AcDbEntity
  8
Layer0$C$L0$V_TOP
100
AcDbMText
 10
-8.6834158261617
 20
11.98698002863304
 30
0.0
 40
0.1666666666666667
 41
1.183150634116036
 46
0.0
 71
     7
 72
     1
  1
GOULD\P P/N
  7
CADRASTD
 73
     1
 44
0.8999999999999998
  0
LINE
  5
194
330
1F
100
AcDbEntity
  8
Layer0$C$L0$V_TOP
100
AcDbLine
 10
-2.821550607681274
 20
11.69769191741943
 30
0.0
 11
-2.821550607681274
 21
12.44769191741943
 31
0.0
  0
LINE
  5
195
330
1F
100
AcDbEntity
  8
Layer0$C$L0$V_TOP
100
AcDbLine
 10
-3.771550607681274
 20
11.69769191741943
 30
0.0
 11
-3.771550607681274
 21
12.19935757685081
 31
0.0
  0
LINE
  5
196
330
1F
100
AcDbEntity
  8
Layer0$C$L0$V_TOP
100
AcDbLine
 10
-4.521550607681274
 20
11.69769191741943
 30
0.0
 11
-4.521550607681274
 21
12.44769191742009
 31
0.0
  0
LINE
  5
197
330
1F
100
AcDbEntity
  8
Layer0$C$L0$V_TOP
100
AcDbLine
 10
-5.521550607681274
 20
11.69769191741943
 30
0.0
 11
-5.521550607681274
 21
12.44769191742009
 31
0.0
  0
LINE
  5
198
330
1F
100
AcDbEntity
  8
Layer0$C$L0$V_TOP
100
AcDbLine
 10
-7.671550607681274
 20
11.69769191741943
 30
0.0
 11
-7.671550607681274
 21
12.4476919174219
 31
0.0
  0
LINE
  5
199
330
1F
100
AcDbEntity
  8
Layer0$C$L0$V_TOP
100
AcDbLine
 10
-8.87155065536499
 20
11.6976919174205
 30
0.0
 11
-8.87155065536499
 21
12.44769191742004
 31
0.0
  0
LINE
  5
19A
330
1F
100
AcDbEntity
  8
Layer0$C$L0$V_TOP
100
AcDbLine
 10
-8.87155065536499
 20
11.69769191741943
 30
0.0
 11
0.5784494876861572
 21
11.69769191741943
 31
0.0
  0
LINE
  5
19B
330
1F
100
AcDbEntity
  8
Layer0$C$L0$V_TOP
100
AcDbLine
 10
-8.87155065536499
 20
11.94769191741943
 30
0.0
 11
0.5784494876861572
 21
11.94769191741943
 31
0.0
  0
LINE
  5
19C
330
1F
100
AcDbEntity
  8
Layer0$C$L0$V_TOP
100
AcDbLine
 10
-8.87155065536499
 20
12.44769191741943
 30
0.0
 11
0.5784494876861572
 21
12.44769191741943
 31
0.0
  0
MTEXT
  5
19D
330
1F
100
AcDbEntity
  8
Layer0$C$L0$V_TOP
100
AcDbMText
 10
-18.91575622558594
 20
2.195609410603841
 30
0.0
 40
0.1666666666666667
 41
16.43315063411604
 46
0.0
 71
     7
 72
     1
  1
1. MATERIAL COMPOSITION AND RATING: BASE - PHENOLIC\P                                    CONNECTOR - TIN PLATED ALUM\P                                    CLIP - TIN PLATED COPPER ALLOY
  7
CADRASTD
 73
     1
 44
0.8999999999999998
  0
MTEXT
  5
19E
330
1F
100
AcDbEntity
  8
Layer0$C$L0$V_TOP
100
AcDbMText
 10
-18.91388448079427
 20
4.530693054199219
 30
0.0
 40
0.1666666666666667
 41
6.433150634116036
 46
0.0
 71
     7
 72
     1
  1
5. SPRING REINF. NOT SHOWN
  7
CADRASTD
 73
     1
 44
0.8999999999999998
  0
MTEXT
  5
19F
330
1F
100
AcDbEntity
  8
Layer0$C$L0$V_TOP
100
AcDbMText
 10
-18.93497085571289
 20
3.579527854919434
 30
0.0
 40
0.1666666666666667
 41
7.183150634116036
 46
0.0
 71
     7
 72
     1
  1
3. 250V/200A, 1 POLE, CLASS R
  7
CADRASTD
 73
     1
 44
0.8999999999999998
  0
MTEXT
  5
1A0
330
1F
100
AcDbEntity
  8
Layer0$C$L0$V_TOP
100
AcDbMText
 10
-18.89654032389323
 20
3.118352890014648
 30
0.0
 40
0.1666666666666667
 41
4.433150634116037
 46
0.0
 71
     7
 72
     1
  1
2. TOLERANCE %%p.015
  7
CADRASTD
 73
     1
 44
0.8999999999999998
  0
MTEXT
  5
1A1
330
1F
100
AcDbEntity
  8
Layer0$C$L0$V_TOP
100
AcDbMText
 10
-18.93497085571289
 20
2.080709934234619
 30
0.0
 40
0.1666666666666667
 41
8.183150634116037
 46
0.0
 71
     7
 72
     1
  1
NOTES: UNLESS OTHERWISE SPECIFIED
  7
CADRASTD
 73
     1
 44
0.8999999999999998
  0
LINE
  5
1A2
330
1F
100
AcDbEntity
  8
Layer0$C$L0$V_TOP
100
AcDbLine
 10
-9.60806899460335
 20
9.46369751326294
 30
0.0
 11
-9.752375405694428
 21
9.213296872237299
 31
0.0
  0
LWPOLYLINE
  5
1A3
330
1F
100
AcDbEntity
  8
Layer0$C$L0$V_TOP
100
AcDbPolyline
 90
        5
 70
     0
 43
0.0
 10
-9.602852314581982
 20
9.37031894088046
 10
-9.64823743076788
 20
9.415704057066359
 10
-9.712141761029631
 20
9.415704057066359
 10
-9.75716823046406
 20
9.37031894088046
 10
-9.75716823046406
 20
9.30641461061871
  0
LWPOLYLINE
  5
1A4
330
1F
100
AcDbEntity
  8
Layer0$C$L0$V_TOP
100
AcDbPolyline
 90
        5
 70
     0
 43
0.0
 10
-9.75716823046406
 20
9.30641461061871
 10
-9.712141761029631
 20
9.26138814118428
 10
-9.64823743076788
 20
9.26138814118428
 10
-9.602852314581982
 20
9.30641461061871
 10
-9.602852314581982
 20
9.37031894088046
  0
LWPOLYLINE
  5
1A5
330
1F
100
AcDbEntity
  8
Layer0$C$L0$V_TOP
100
AcDbPolyline
 90
        5
 70
     1
 43
0.0
 10
-9.339126770377922
 20
9.25503031240824
 10
-9.327389240329845
 20
9.25503031240824
 10
-9.327389240329845
 20
9.266115757453646
 10
-9.339126770377922
 20
9.266115757453646
 10
-9.339126770377922
 20
9.25503031240824
  0
LINE
  5
1A6
330
1F
100
AcDbEntity
  8
Layer0$C$L0$V_TOP
100
AcDbLine
 10
-9.10125242141959
 20
9.355190568818497
 30
0.0
 11
-9.136725845564888
 21
9.321803816681744
 31
0.0
  0
LWPOLYLINE
  5
1A7
330
1F
100
AcDbEntity
  8
Layer0$C$L0$V_TOP
100
AcDbPolyline
 90
        5
 70
     0
 43
0.0
 10
-9.10125242141959
 20
9.255029888537068
 10
-9.220196116876142
 20
9.255029888537068
 10
-9.220196116876142
 20
9.277201202499052
 10
-9.1844584677604
 20
9.310587954635803
 10
-9.136725845564888
 20
9.321803816681744
  0
LWPOLYLINE
  5
1A8
330
1F
100
AcDbEntity
  8
Layer0$C$L0$V_TOP
100
AcDbPolyline
 90
        5
 70
     0
 43
0.0
 10
-9.220196116876142
 20
9.388577320955248
 10
-9.1844584677604
 20
9.421964073092001
 10
-9.136725845564888
 20
9.421964073092001
 10
-9.10125242141959
 20
9.388577320955248
 10
-9.10125242141959
 20
9.355190568818497
  0
LWPOLYLINE
  5
1A9
330
1F
100
AcDbEntity
  8
Layer0$C$L0$V_TOP
100
AcDbPolyline
 90
        5
 70
     0
 43
0.0
 10
-8.934585754752922
 20
9.332758844726616
 10
-8.934585754752922
 20
9.277201202499052
 10
-8.958060814849075
 20
9.255029888537068
 10
-9.029659748142343
 20
9.255029888537068
 10
-9.053527754724788
 20
9.277201202499052
  0
LWPOLYLINE
  5
1AA
330
1F
100
AcDbEntity
  8
Layer0$C$L0$V_TOP
100
AcDbPolyline
 90
        5
 70
     0
 43
0.0
 10
-8.934585754752922
 20
9.421964073092001
 10
-9.053527754724788
 20
9.421964073092001
 10
-9.053527754724788
 20
9.355190568818497
 10
-8.958060814849075
 20
9.355190568818497
 10
-8.934585754752922
 20
9.332758844726616
  0
LINE
  5
1AB
330
1F
100
AcDbEntity
  8
Layer0$C$L0$V_TOP
100
AcDbLine
 10
-8.660722573663179
 20
9.421964073092001
 30
0.0
 11
-8.660722573663179
 21
9.25502967560648
 31
0.0
  0
LINE
  5
1AC
330
1F
100
AcDbEntity
  8
Layer0$C$L0$V_TOP
100
AcDbLine
 10
-8.720199507845518
 20
9.421964073092001
 30
0.0
 11
-8.60125242141959
 21
9.421964073092001
 31
0.0
  0
LINE
  5
1AD
330
1F
100
AcDbEntity
  8
Layer0$C$L0$V_TOP
100
AcDbLine
 10
-8.553532841178852
 20
9.343713872771486
 30
0.0
 11
-8.434585754752923
 21
9.343713872771486
 31
0.0
  0
LINE
  5
1AE
330
1F
100
AcDbEntity
  8
Layer0$C$L0$V_TOP
100
AcDbLine
 10
-8.434585754752923
 20
9.421964073092001
 30
0.0
 11
-8.434585754752923
 21
9.255029888537068
 31
0.0
  0
LINE
  5
1AF
330
1F
100
AcDbEntity
  8
Layer0$C$L0$V_TOP
100
AcDbLine
 10
-8.553532841178852
 20
9.255029888537068
 30
0.0
 11
-8.553532841178852
 21
9.421964073092001
 31
0.0
  0
LWPOLYLINE
  5
1B0
330
1F
100
AcDbEntity
  8
Layer0$C$L0$V_TOP
100
AcDbPolyline
 90
        3
 70
     0
 43
0.0
 10
-8.267919088086256
 20
9.355190568818497
 10
-8.291394148182409
 20
9.332758844726616
 10
-8.386866174512184
 20
9.332758844726616
  0
LWPOLYLINE
  5
1B1
330
1F
100
AcDbEntity
  8
Layer0$C$L0$V_TOP
100
AcDbPolyline
 90
        5
 70
     0
 43
0.0
 10
-8.386866174512184
 20
9.255029888537068
 10
-8.386866174512184
 20
9.421964073092001
 10
-8.291394148182409
 20
9.421964073092001
 10
-8.267919088086256
 20
9.399010680997982
 10
-8.267919088086256
 20
9.355190568818497
  0
LINE
  5
1B2
330
1F
100
AcDbEntity
  8
Layer0$C$L0$V_TOP
100
AcDbLine
 10
-8.3153908762807
 20
9.332758844726616
 30
0.0
 11
-8.267919088086256
 21
9.255029888537068
 31
0.0
  0
LINE
  5
1B3
330
1F
100
AcDbEntity
  8
Layer0$C$L0$V_TOP
100
AcDbLine
 10
-8.10125242141959
 20
9.277201202499052
 30
0.0
 11
-8.10125242141959
 21
9.421964073092001
 31
0.0
  0
LWPOLYLINE
  5
1B4
330
1F
100
AcDbEntity
  8
Layer0$C$L0$V_TOP
100
AcDbPolyline
 90
        5
 70
     0
 43
0.0
 10
-8.220199507845518
 20
9.421964073092001
 10
-8.220199507845518
 20
9.277201202499052
 10
-8.196326414809011
 20
9.25502967560648
 10
-8.124727481515743
 20
9.25502967560648
 10
-8.10125242141959
 20
9.277201202499052
  0
LINE
  5
1B5
330
1F
100
AcDbEntity
  8
Layer0$C$L0$V_TOP
100
AcDbLine
 10
-9.60806899460335
 20
9.21369751326294
 30
0.0
 11
-9.752375405694428
 21
8.963296872237299
 31
0.0
  0
LWPOLYLINE
  5
1B6
330
1F
100
AcDbEntity
  8
Layer0$C$L0$V_TOP
100
AcDbPolyline
 90
        5
 70
     0
 43
0.0
 10
-9.602852314581982
 20
9.12031894088046
 10
-9.64823743076788
 20
9.165704057066359
 10
-9.712141761029631
 20
9.165704057066359
 10
-9.75716823046406
 20
9.12031894088046
 10
-9.75716823046406
 20
9.05641461061871
  0
LWPOLYLINE
  5
1B7
330
1F
100
AcDbEntity
  8
Layer0$C$L0$V_TOP
100
AcDbPolyline
 90
        5
 70
     0
 43
0.0
 10
-9.75716823046406
 20
9.05641461061871
 10
-9.712141761029631
 20
9.01138814118428
 10
-9.64823743076788
 20
9.01138814118428
 10
-9.602852314581982
 20
9.05641461061871
 10
-9.602852314581982
 20
9.12031894088046
  0
LWPOLYLINE
  5
1B8
330
1F
100
AcDbEntity
  8
Layer0$C$L0$V_TOP
100
AcDbPolyline
 90
        5
 70
     1
 43
0.0
 10
-9.505793437044588
 20
9.00503031240824
 10
-9.494055906996511
 20
9.00503031240824
 10
-9.494055906996511
 20
9.016115757453646
 10
-9.505793437044588
 20
9.016115757453646
 10
-9.505793437044588
 20
9.00503031240824
  0
LWPOLYLINE
  5
1B9
330
1F
100
AcDbEntity
  8
Layer0$C$L0$V_TOP
100
AcDbPolyline
 90
        4
 70
     0
 43
0.0
 10
-9.267919088086256
 20
9.071803816681744
 10
-9.291394148182409
 20
9.093713872771486
 10
-9.362993081475677
 20
9.093713872771486
 10
-9.386864486987518
 20
9.071803816681744
  0
LWPOLYLINE
  5
1BA
330
1F
100
AcDbEntity
  8
Layer0$C$L0$V_TOP
100
AcDbPolyline
 90
        5
 70
     0
 43
0.0
 10
-9.386864486987518
 20
9.027201202499052
 10
-9.362993081475677
 20
9.00502967560648
 10
-9.291394148182409
 20
9.00502967560648
 10
-9.267919088086256
 20
9.027201202499052
 10
-9.267919088086256
 20
9.071803816681744
  0
LWPOLYLINE
  5
1BB
330
1F
100
AcDbEntity
  8
Layer0$C$L0$V_TOP
100
AcDbPolyline
 90
        5
 70
     0
 43
0.0
 10
-9.2799174521354
 20
9.149010680997982
 10
-9.303392512231554
 20
9.171964073092001
 10
-9.362993081475677
 20
9.171964073092001
 10
-9.386864486987518
 20
9.149010680997982
 10
-9.386864486987518
 20
9.027201202499052
  0
LINE
  5
1BC
330
1F
100
AcDbEntity
  8
Layer0$C$L0$V_TOP
100
AcDbLine
 10
-9.10125242141959
 20
9.105190568818497
 30
0.0
 11
-9.136725845564888
 21
9.071803816681744
 31
0.0
  0
LWPOLYLINE
  5
1BD
330
1F
100
AcDbEntity
  8
Layer0$C$L0$V_TOP
100
AcDbPolyline
 90
        5
 70
     0
 43
0.0
 10
-9.10125242141959
 20
9.005029888537068
 10
-9.220196116876142
 20
9.005029888537068
 10
-9.220196116876142
 20
9.027201202499052
 10
-9.1844584677604
 20
9.060587954635803
 10
-9.136725845564888
 20
9.071803816681744
  0
LWPOLYLINE
  5
1BE
330
1F
100
AcDbEntity
  8
Layer0$C$L0$V_TOP
100
AcDbPolyline
 90
        5
 70
     0
 43
0.0
 10
-9.220196116876142
 20
9.138577320955248
 10
-9.1844584677604
 20
9.171964073092001
 10
-9.136725845564888
 20
9.171964073092001
 10
-9.10125242141959
 20
9.138577320955248
 10
-9.10125242141959
 20
9.105190568818497
  0
LWPOLYLINE
  5
1BF
330
1F
100
AcDbEntity
  8
Layer0$C$L0$V_TOP
100
AcDbPolyline
 90
        4
 70
     0
 43
0.0
 10
-9.0535260592401
 20
9.171964073092001
 10
-9.0535260592401
 20
9.00503031240824
 10
-8.71965853787258
 20
9.00503031240824
 10
-8.71965853787258
 20
9.171964073092001
  0
LWPOLYLINE
  5
1C0
330
1F
100
AcDbEntity
  8
Layer0$C$L0$V_TOP
100
AcDbPolyline
 90
        5
 70
     1
 43
0.0
 10
-8.462460103711255
 20
9.00503031240824
 10
-8.450722573663178
 20
9.00503031240824
 10
-8.450722573663178
 20
9.016115757453646
 10
-8.462460103711255
 20
9.016115757453646
 10
-8.462460103711255
 20
9.00503031240824
  0
LWPOLYLINE
  5
1C1
330
1F
100
AcDbEntity
  8
Layer0$C$L0$V_TOP
100
AcDbPolyline
 90
        5
 70
     0
 43
0.0
 10
-8.224585754752923
 20
9.082758844726616
 10
-8.224585754752923
 20
9.027201202499052
 10
-8.248060814849076
 20
9.005029888537068
 10
-8.319659748142344
 20
9.005029888537068
 10
-8.34352775472479
 20
9.027201202499052
  0
LWPOLYLINE
  5
1C2
330
1F
100
AcDbEntity
  8
Layer0$C$L0$V_TOP
100
AcDbPolyline
 90
        5
 70
     0
 43
0.0
 10
-8.224585754752923
 20
9.171964073092001
 10
-8.34352775472479
 20
9.171964073092001
 10
-8.34352775472479
 20
9.105190568818497
 10
-8.248060814849076
 20
9.105190568818497
 10
-8.224585754752923
 20
9.082758844726616
  0
LWPOLYLINE
  5
1C3
330
1F
100
AcDbEntity
  8
Layer0$C$L0$V_TOP
100
AcDbPolyline
 90
        5
 70
     0
 43
0.0
 10
-8.057919088086257
 20
9.12710062490824
 10
-8.057919088086257
 20
9.049372092589863
 10
-8.093392512231555
 20
9.00503031240824
 10
-8.141125134427067
 20
9.00503031240824
 10
-8.176859392573435
 20
9.049372092589863
  0
LWPOLYLINE
  5
1C4
330
1F
100
AcDbEntity
  8
Layer0$C$L0$V_TOP
100
AcDbPolyline
 90
        5
 70
     0
 43
0.0
 10
-8.176859392573435
 20
9.049372092589863
 10
-8.176859392573435
 20
9.12710062490824
 10
-8.141125134427067
 20
9.171964073092001
 10
-8.093392512231555
 20
9.171964073092001
 10
-8.057919088086257
 20
9.12710062490824
  0
LINE
  5
1C5
330
1F
100
AcDbEntity
  8
Layer0$C$L0$V_TOP
100
AcDbLine
 10
-8.01019272590677
 20
9.171964073092001
 30
0.0
 11
-7.759792084881128
 21
9.171964073092001
 31
0.0
  0
LINE
  5
1C6
330
1F
100
AcDbEntity
  8
Layer0$C$L0$V_TOP
100
AcDbLine
 10
-7.884992405393949
 20
9.00503031240824
 30
0.0
 11
-7.884992405393949
 21
9.171964073092001
 31
0.0
  0
LWPOLYLINE
  5
1C7
330
1F
100
AcDbEntity
  8
Layer0$C$L0$V_TOP
100
AcDbPolyline
 90
        3
 70
     0
 43
0.0
 10
-7.942897553631128
 20
9.105190568818497
 10
-7.884992405393949
 20
9.00503031240824
 10
-7.827608925158906
 20
9.105190568818497
  0
LWPOLYLINE
  5
1C8
330
1F
100
AcDbEntity
  8
Layer0$C$L0$V_TOP
100
AcDbPolyline
 90
        4
 70
     0
 43
0.0
 10
-9.668060814849076
 20
8.755029888537068
 10
-9.668060814849076
 20
8.921964073092001
 10
-9.763529450209475
 20
8.821803816681744
 10
-9.644585754752923
 20
8.821803816681744
  0
LINE
  5
1C9
330
1F
100
AcDbEntity
  8
Layer0$C$L0$V_TOP
100
AcDbLine
 10
-9.477919088086256
 20
8.75502967560648
 30
0.0
 11
-9.596866174512185
 21
8.921964073092001
 31
0.0
  0
LINE
  5
1CA
330
1F
100
AcDbEntity
  8
Layer0$C$L0$V_TOP
100
AcDbLine
 10
-9.596866174512185
 20
8.75502967560648
 30
0.0
 11
-9.477919088086256
 21
8.921964073092001
 31
0.0
  0
INSERT
  5
1CB
330
1F
100
AcDbEntity
  8
Layer0$C$L0$V_TOP
100
AcDbBlockReference
  2
*D2
 10
0.0
 20
0.0
 30
0.0
  0
DIMENSION
  5
1CC
330
1F
100
AcDbEntity
  8
Layer0$C$L0$V_TOP
100
AcDbDimension
  2
*D3
 10
-7.756611080590519
 20
8.582401531410252
 30
0.0
 11
-7.756611080590519
 21
7.255659319629046
 31
0.0
 70
   160
 71
     5
 42
-1.0
 73
     0
 74
     0
 75
     0
  3
DIM3
100
AcDbAlignedDimension
 13
-6.009692608531395
 23
5.634032894195101
 33
0.0
 14
-4.193515424659616
 24
8.582401531410255
 34
1.499736192423726E+21
 50
90.0000000000002
100
AcDbRotatedDimension
  0
DIMENSION
  5
1CD
330
1F
100
AcDbEntity
  8
Layer0$C$L0$V_TOP
100
AcDbDimension
  2
*D4
 10
-7.122112167466348
 20
6.690032115281333
 30
0.0
 11
-7.122112167466348
 21
6.187844142948904
 31
0.0
 70
   160
 71
     5
 42
-1.0
 73
     0
 74
     0
 75
     0
  3
DIM3
100
AcDbAlignedDimension
 13
-6.009692608531395
 23
5.634032894195101
 33
0.0
 14
-5.199692582007327
 24
6.690032115281333
 34
1.499736192423726E+21
 50
90.0000000000002
100
AcDbRotatedDimension
  0
DIMENSION
  5
1CE
330
1F
100
AcDbEntity
  8
Layer0$C$L0$V_TOP
100
AcDbDimension
  2
*D5
 10
-19.00463104248047
 20
13.07666702270508
 30
0.0
 11
-19.00463104248047
 21
12.0745969136556
 31
0.0
 70
   161
 71
     5
 42
-1.0
 73
     0
 74
     0
 75
     0
  3
DIM3
100
AcDbAlignedDimension
 13
-17.34213829040527
 23
10.07666702270507
 33
0.0
 14
-17.34213829040527
 24
13.07666702270507
 34
1.499736192423726E+21
  0
DIMENSION
  5
1CF
330
1F
100
AcDbEntity
  8
Layer0$C$L0$V_TOP
100
AcDbDimension
  2
*D6
 10
-12.0601
 20
13.68677698771159
 30
0.0
 11
-13.56013822555542
 21
13.68677698771159
 31
0.0
 70
   161
 71
     5
 42
-1.0
 73
     0
 74
     0
 75
     0
  3
DIM3
100
AcDbAlignedDimension
 13
-15.0601
 23
13.0509335
 33
0.0
 14
-12.0601
 24
13.0509335
 34
1.499736192423726E+21
  0
DIMENSION
  5
1D0
330
1F
100
AcDbEntity
  8
Layer0$C$L0$V_TOP
100
AcDbDimension
  2
*D7
 10
-9.560137748718262
 20
14.47546946207682
 30
0.0
 11
-13.63456090291341
 21
14.47546946207682
 31
0.0
 70
   161
 71
     5
 42
-1.0
 73
     0
 74
     0
 75
     0
  3
DIM3
100
AcDbAlignedDimension
 13
-17.56013870239258
 23
12.85866661071777
 33
0.0
 14
-9.560137748718262
 24
12.85866661071777
 34
1.499736192423726E+21
  0
DIMENSION
  5
1D1
330
1F
100
AcDbEntity
  8
Layer0$C$L0$V_TOP
100
AcDbDimension
  2
*D8
 10
-15.0601
 20
13.68677698771159
 30
0.0
 11
-16.3021977742513
 21
13.68677698771159
 31
0.0
 70
   160
 71
     5
 42
-1.0
 73
     0
 74
     0
 75
     0
  3
DIM3
100
AcDbAlignedDimension
 13
-17.56013870239258
 23
12.85866661071777
 33
0.0
 14
-15.0601
 24
13.0509335
 34
1.499736192423726E+21
100
AcDbRotatedDimension
  0
DIMENSION
  5
1D2
330
1F
100
AcDbEntity
  8
Layer0$C$L0$V_TOP
100
AcDbDimension
  2
*D9
 10
-18.35511906941732
 20
10.5766
 30
0.0
 11
-18.35511906941732
 21
11.6802500406901
 31
0.0
 70
   161
 71
     5
 42
-1.0
 73
     0
 74
     0
 75
     0
  3
DIM3
100
AcDbAlignedDimension
 13
-15.5344335
 23
12.5766
 33
0.0
 14
-15.5344335
 24
10.5766
 34
1.499736192423726E+21
  0
DIMENSION
  5
1D3
330
1F
100
AcDbEntity
  8
Layer0$C$L0$V_TOP
100
AcDbDimension
  2
*D10
 10
-18.35511906941732
 20
12.5766
 30
0.0
 11
-18.35511906941732
 21
13.93034413655599
 31
0.0
 70
   160
 71
     5
 42
-1.0
 73
     0
 74
     0
 75
     0
  3
DIM3
100
AcDbAlignedDimension
 13
-17.34213829040527
 23
13.07666702270508
 33
0.0
 14
-15.5344335
 24
12.5766
 34
1.499736192423726E+21
 50
-90.0000000000002
100
AcDbRotatedDimension
  0
LINE
  5
1D4
330
1F
100
AcDbEntity
  8
Layer0$C$L0$V_TOP
  6
CENTERLINE
100
AcDbLine
 10
-15.0601
 20
10.1022665
 30
0.0
 11
-15.0601
 21
11.0509335
 31
0.0
  0
LINE
  5
1D5
330
1F
100
AcDbEntity
  8
Layer0$C$L0$V_TOP
  6
CENTERLINE
100
AcDbLine
 10
-15.5344335
 20
10.5766
 30
0.0
 11
-14.5857665
 21
10.5766
 31
0.0
  0
LINE
  5
1D6
330
1F
100
AcDbEntity
  8
Layer0$C$L0$V_TOP
  6
CENTERLINE
100
AcDbLine
 10
-12.0601
 20
10.1022665
 30
0.0
 11
-12.0601
 21
11.0509335
 31
0.0
  0
LINE
  5
1D7
330
1F
100
AcDbEntity
  8
Layer0$C$L0$V_TOP
  6
CENTERLINE
100
AcDbLine
 10
-12.5344335
 20
10.5766
 30
0.0
 11
-11.5857665
 21
10.5766
 31
0.0
  0
LINE
  5
1D8
330
1F
100
AcDbEntity
  8
Layer0$C$L0$V_TOP
  6
CENTERLINE
100
AcDbLine
 10
-12.0601
 20
12.1022665
 30
0.0
 11
-12.0601
 21
13.0509335
 31
0.0
  0
LINE
  5
1D9
330
1F
100
AcDbEntity
  8
Layer0$C$L0$V_TOP
  6
CENTERLINE
100
AcDbLine
 10
-12.5344335
 20
12.5766
 30
0.0
 11
-11.5857665
 21
12.5766
 31
0.0
  0
LINE
  5
1DA
330
1F
100
AcDbEntity
  8
Layer0$C$L0$V_TOP
  6
CENTERLINE
100
AcDbLine
 10
-15.0601
 20
12.1022665
 30
0.0
 11
-15.0601
 21
13.0509335
 31
0.0
  0
LINE
  5
1DB
330
1F
100
AcDbEntity
  8
Layer0$C$L0$V_TOP
  6
CENTERLINE
100
AcDbLine
 10
-15.5344335
 20
12.5766
 30
0.0
 11
-14.5857665
 21
12.5766
 31
0.0
  0
CIRCLE
  5
1DD
330
1F
100
AcDbEntity
  8
Layer0$C$L0$V_TOP
100
AcDbCircle
 10
-10.7001371383667
 20
7.86740255355835
 30
0.0
 40
0.1449999958276749
  0
CIRCLE
  5
1DE
330
1F
100
AcDbEntity
  8
Layer0$C$L0$V_TOP
100
AcDbCircle
 10
-16.42013931274414
 20
7.86740255355835
 30
0.0
 40
0.1449999958276749
  0
LINE
  5
1DF
330
1F
100
AcDbEntity
  8
Layer0$C$L0$V_TOP
100
AcDbLine
 10
-4.06377216388165
 20
7.748654899190831
 30
0.0
 11
-3.920012273297916
 21
7.748654899190831
 31
0.0
  0
LINE
  5
1E0
330
1F
100
AcDbEntity
  8
Layer0$C$L0$V_TOP
100
AcDbLine
 10
-4.05420018048058
 20
7.986819554069148
 30
0.0
 11
-3.929584256698986
 21
7.986819554069148
 31
0.0
  0
LINE
  5
1E1
330
1F
100
AcDbEntity
  8
Layer0$C$L0$V_TOP
100
AcDbLine
 10
-4.165830098620947
 20
7.986819554069148
 30
0.0
 11
-4.235312375796148
 21
7.98196087993971
 31
0.0
  0
LINE
  5
1E2
330
1F
100
AcDbEntity
  8
Layer0$C$L0$V_TOP
100
AcDbLine
 10
-4.235312375796148
 20
7.752844227176989
 30
0.0
 11
-4.235312375796148
 21
7.98196087993971
 31
0.0
  0
LINE
  5
1E3
330
1F
100
AcDbEntity
  8
Layer0$C$L0$V_TOP
100
AcDbLine
 10
-4.176003371128284
 20
7.748696937561022
 30
0.0
 11
-4.235312375796148
 21
7.752844227176989
 31
0.0
  0
LINE
  5
1E4
330
1F
100
AcDbEntity
  8
Layer0$C$L0$V_TOP
100
AcDbLine
 10
-3.758934108086397
 20
7.722402557730675
 30
0.0
 11
-3.758934108086397
 21
8.012402549386024
 31
0.0
  0
LINE
  5
1E5
330
1F
100
AcDbEntity
  8
Layer0$C$L0$V_TOP
100
AcDbLine
 10
-3.758934108086397
 20
7.722402557730675
 30
0.0
 11
-3.807327132675431
 21
7.722402557730675
 31
0.0
  0
LINE
  5
1E6
330
1F
100
AcDbEntity
  8
Layer0$C$L0$V_TOP
100
AcDbLine
 10
-3.758934108086397
 20
8.012402549386024
 30
0.0
 11
-3.818982546889043
 21
8.012402549386024
 31
0.0
  0
LINE
  5
1E7
330
1F
100
AcDbEntity
  8
Layer0$C$L0$V_TOP
100
AcDbLine
 10
-4.882575649370917
 20
6.880752991413273
 30
0.0
 11
-5.541213291763535
 21
6.938376318494068
 31
0.0
  0
LINE
  5
1E8
330
1F
100
AcDbEntity
  8
Layer0$C$L0$V_TOP
100
AcDbLine
 10
-4.855024095671103
 20
6.948609931729209
 30
0.0
 11
-5.556563041426728
 21
7.009986636504754
 31
0.0
  0
LINE
  5
1E9
330
1F
100
AcDbEntity
  8
Layer0$C$L0$V_TOP
100
AcDbLine
 10
-4.951464266357271
 20
7.308384298008732
 30
0.0
 11
-5.399113850557454
 21
7.347548561858342
 31
0.0
  0
LINE
  5
1EA
330
1F
100
AcDbEntity
  8
Layer0$C$L0$V_TOP
100
AcDbLine
 10
-4.891326190223923
 20
7.23285550917361
 30
0.0
 11
-5.471453730727422
 21
7.283610092366842
 31
0.0
  0
LINE
  5
1EB
330
1F
100
AcDbEntity
  8
Layer0$C$L0$V_TOP
100
AcDbLine
 10
-4.858172041297719
 20
7.15968750806652
 30
0.0
 11
-5.51680968369025
 21
7.217310835147309
 31
0.0
  0
LINE
  5
1EC
330
1F
100
AcDbEntity
  8
Layer0$C$L0$V_TOP
100
AcDbLine
 10
-4.842822291634503
 20
7.088077190055833
 30
0.0
 11
-5.544361237390085
 21
7.149453894831375
 31
0.0
  0
LINE
  5
1ED
330
1F
100
AcDbEntity
  8
Layer0$C$L0$V_TOP
100
AcDbLine
 10
-4.842058772528293
 20
7.017743001862458
 30
0.0
 11
-5.557326560532917
 21
7.080320824698127
 31
0.0
  0
ARC
  5
1EE
330
1F
100
AcDbEntity
  8
Layer0$C$L0$V_TOP
100
AcDbCircle
 10
-5.199697512663988
 20
7.309422004215548
 30
0.0
 40
0.5
100
AcDbArc
 50
260.0000000001953
 51
280.000000000084
  0
LINE
  5
1EF
330
1F
100
AcDbEntity
  8
Layer0$C$L0$V_TOP
100
AcDbLine
 10
-4.897668006771218
 20
6.854964649131457
 30
0.0
 11
-5.11287342382977
 21
6.81701812770936
 31
0.0
  0
LINE
  5
1F0
330
1F
100
AcDbEntity
  8
Layer0$C$L0$V_TOP
100
AcDbLine
 10
-5.286521601495734
 20
6.817018127709416
 30
0.0
 11
-5.50171608783433
 21
6.854962721750609
 31
0.0
  0
LINE
  5
1F1
330
1F
100
AcDbEntity
  8
Layer0$C$L0$V_TOP
100
AcDbLine
 10
-11.32863807678223
 20
12.6336669921875
 30
0.0
 11
-11.32863807678223
 21
10.51966857910156
 31
0.0
  0
LINE
  5
1F3
330
1F
100
AcDbEntity
  8
Layer0$C$L0$V_TOP
  6
DASHED
100
AcDbLine
 10
-11.32513713836605
 20
12.5766674041748
 30
0.0
 11
-10.07513713836634
 21
12.5766674041748
 31
0.0
  0
LINE
  5
1F4
330
1F
100
AcDbEntity
  8
Layer0$C$L0$V_TOP
100
AcDbLine
 10
-11.32513713836564
 20
10.3266674041748
 30
0.0
 11
-10.0751371383667
 21
10.3266674041748
 31
0.0
  0
LINE
  5
1F5
330
1F
100
AcDbEntity
  8
Layer0$C$L0$V_TOP
100
AcDbLine
 10
-10.0751371383667
 20
10.32666740417479
 30
0.0
 11
-10.0751371383667
 21
12.74225803315639
 31
0.0
  0
LINE
  5
1F6
330
1F
100
AcDbEntity
  8
Layer0$C$L0$V_TOP
100
AcDbLine
 10
-11.3251371383667
 20
10.32666740417479
 30
0.0
 11
-11.3251371383667
 21
12.74225803315639
 31
0.0
  0
LINE
  5
1F7
330
1F
100
AcDbEntity
  8
Layer0$C$L0$V_TOP
100
AcDbLine
 10
-10.0751371383667
 20
12.74225803315639
 30
0.0
 11
-11.3251371383667
 21
12.74225803315639
 31
0.0
  0
LINE
  5
1F8
330
1F
100
AcDbEntity
  8
Layer0$C$L0$V_TOP
100
AcDbLine
 10
-10.0751371383667
 20
11.44667682647705
 30
0.0
 11
-11.3251371383667
 21
11.44667682647705
 31
0.0
  0
LINE
  5
1F9
330
1F
100
AcDbEntity
  8
Layer0$C$L0$V_TOP
100
AcDbLine
 10
-10.0751371383667
 20
12.37496242523193
 30
0.0
 11
-11.3251371383667
 21
12.37496242523193
 31
0.0
  0
LINE
  5
1FA
330
1F
100
AcDbEntity
  8
Layer0$C$L0$V_TOP
100
AcDbLine
 10
-10.0751371383667
 20
11.81397495269775
 30
0.0
 11
-11.3251371383667
 21
11.81397495269775
 31
0.0
  0
LINE
  5
1FB
330
1F
100
AcDbEntity
  8
Layer0$C$L0$V_TOP
100
AcDbLine
 10
-10.0751371383667
 20
12.2960916519165
 30
0.0
 11
-11.3251371383667
 21
12.2960916519165
 31
0.0
  0
LINE
  5
1FC
330
1F
100
AcDbEntity
  8
Layer0$C$L0$V_TOP
100
AcDbLine
 10
-10.0751371383667
 20
11.89284381866455
 30
0.0
 11
-11.3251371383667
 21
11.89284381866455
 31
0.0
  0
LINE
  5
1FD
330
1F
100
AcDbEntity
  8
Layer0$C$L0$V_TOP
100
AcDbLine
 10
-10.0751371383667
 20
12.04688449800014
 30
0.0
 11
-11.3251371383667
 21
12.04688449800014
 31
0.0
  0
LINE
  5
1FE
330
1F
100
AcDbEntity
  8
Layer0$C$L0$V_TOP
100
AcDbLine
 10
-10.0751371383667
 20
12.14205097258091
 30
0.0
 11
-11.3251371383667
 21
12.14205097258091
 31
0.0
  0
LINE
  5
1FF
330
1F
100
AcDbEntity
  8
Layer0$C$L0$V_TOP
100
AcDbLine
 10
-17.04513931274414
 20
12.14205097258091
 30
0.0
 11
-15.79513931274414
 21
12.14205097258091
 31
0.0
  0
LINE
  5
200
330
1F
100
AcDbEntity
  8
Layer0$C$L0$V_TOP
100
AcDbLine
 10
-17.04513931274414
 20
12.04688449800014
 30
0.0
 11
-15.79513931274414
 21
12.04688449800014
 31
0.0
  0
LINE
  5
201
330
1F
100
AcDbEntity
  8
Layer0$C$L0$V_TOP
100
AcDbLine
 10
-17.04513931274414
 20
11.89284381866455
 30
0.0
 11
-15.79513931274414
 21
11.89284381866455
 31
0.0
  0
LINE
  5
202
330
1F
100
AcDbEntity
  8
Layer0$C$L0$V_TOP
100
AcDbLine
 10
-17.04513931274414
 20
12.2960916519165
 30
0.0
 11
-15.79513931274414
 21
12.2960916519165
 31
0.0
  0
LINE
  5
203
330
1F
100
AcDbEntity
  8
Layer0$C$L0$V_TOP
100
AcDbLine
 10
-17.04513931274414
 20
11.81397495269775
 30
0.0
 11
-15.79513931274414
 21
11.81397495269775
 31
0.0
  0
LINE
  5
204
330
1F
100
AcDbEntity
  8
Layer0$C$L0$V_TOP
100
AcDbLine
 10
-17.04513931274414
 20
12.37496242523193
 30
0.0
 11
-15.79513931274414
 21
12.37496242523193
 31
0.0
  0
LINE
  5
205
330
1F
100
AcDbEntity
  8
Layer0$C$L0$V_TOP
100
AcDbLine
 10
-17.04513931274414
 20
11.44667682647705
 30
0.0
 11
-15.79513931274414
 21
11.44667682647705
 31
0.0
  0
LINE
  5
206
330
1F
100
AcDbEntity
  8
Layer0$C$L0$V_TOP
100
AcDbLine
 10
-17.04513931274414
 20
12.74225803315639
 30
0.0
 11
-15.79513931274414
 21
12.74225803315639
 31
0.0
  0
LINE
  5
207
330
1F
100
AcDbEntity
  8
Layer0$C$L0$V_TOP
100
AcDbLine
 10
-10.07513809204102
 20
6.38903284072876
 30
0.0
 11
-10.07513809204102
 21
7.639032840728897
 31
0.0
  0
LINE
  5
208
330
1F
100
AcDbEntity
  8
Layer0$C$L0$V_TOP
100
AcDbLine
 10
-10.07513809204102
 20
7.639032840728513
 30
0.0
 11
-11.32513809204102
 21
7.639032840728513
 31
0.0
  0
LINE
  5
209
330
1F
100
AcDbEntity
  8
Layer0$C$L0$V_TOP
100
AcDbLine
 10
-11.32513809204102
 20
6.38903284072876
 30
0.0
 11
-11.32513809204102
 21
7.639032840728897
 31
0.0
  0
LINE
  5
20A
330
1F
100
AcDbEntity
  8
Layer0$C$L0$V_TOP
100
AcDbLine
 10
-10.07451152801514
 20
8.381128311157227
 30
0.0
 11
-11.32575988769531
 21
8.381128311157227
 31
0.0
  0
CIRCLE
  5
20B
330
1F
100
AcDbEntity
  8
Layer0$C$L0$V_TOP
100
AcDbCircle
 10
-10.29759120941162
 20
8.136242866516113
 30
0.0
 40
0.0972400009632111
  0
LINE
  5
20C
330
1F
100
AcDbEntity
  8
Layer0$C$L0$V_TOP
100
AcDbLine
 10
-11.32575988769531
 20
8.582402229309082
 30
0.0
 11
-10.07451152801514
 21
8.582402229309082
 31
0.0
  0
LINE
  5
20D
330
1F
100
AcDbEntity
  8
Layer0$C$L0$V_TOP
100
AcDbLine
 10
-11.32575988769531
 20
8.503532409667969
 30
0.0
 11
-10.07451152801514
 21
8.503532409667969
 31
0.0
  0
LINE
  5
20E
330
1F
100
AcDbEntity
  8
Layer0$C$L0$V_TOP
100
AcDbLine
 10
-10.07451152801514
 20
7.63903284072876
 30
0.0
 11
-10.07451152801514
 21
8.582402229309082
 31
0.0
  0
LINE
  5
20F
330
1F
100
AcDbEntity
  8
Layer0$C$L0$V_TOP
100
AcDbLine
 10
-11.32575988769531
 20
6.63903284072876
 30
0.0
 11
-11.32575988769531
 21
8.582402229309082
 31
0.0
  0
CIRCLE
  5
210
330
1F
100
AcDbEntity
  8
Layer0$C$L0$V_TOP
100
AcDbCircle
 10
-15.06013298034668
 20
12.57662010192871
 30
0.0
 40
0.3100000023841858
  0
CIRCLE
  5
211
330
1F
100
AcDbEntity
  8
Layer0$C$L0$V_TOP
100
AcDbCircle
 10
-15.06013298034668
 20
12.57662010192871
 30
0.0
 40
0.135000005364418
  0
CIRCLE
  5
212
330
1F
100
AcDbEntity
  8
Layer0$C$L0$V_TOP
100
AcDbCircle
 10
-12.06014251708984
 20
12.57662010192871
 30
0.0
 40
0.3100000023841858
  0
CIRCLE
  5
213
330
1F
100
AcDbEntity
  8
Layer0$C$L0$V_TOP
100
AcDbCircle
 10
-12.06014251708984
 20
12.57662010192871
 30
0.0
 40
0.135000005364418
  0
CIRCLE
  5
214
330
1F
100
AcDbEntity
  8
Layer0$C$L0$V_TOP
100
AcDbCircle
 10
-12.06014251708984
 20
10.57662200927734
 30
0.0
 40
0.3100000023841858
  0
CIRCLE
  5
215
330
1F
100
AcDbEntity
  8
Layer0$C$L0$V_TOP
100
AcDbCircle
 10
-12.06014251708984
 20
10.57662200927734
 30
0.0
 40
0.135000005364418
  0
LINE
  5
216
330
1F
100
AcDbEntity
  8
Layer0$C$L0$V_TOP
100
AcDbLine
 10
-15.79451656341553
 20
6.63903284072876
 30
0.0
 11
-15.79451656341553
 21
8.582402229309082
 31
0.0
  0
LINE
  5
217
330
1F
100
AcDbEntity
  8
Layer0$C$L0$V_TOP
100
AcDbLine
 10
-17.0457649230957
 20
7.63903284072876
 30
0.0
 11
-17.0457649230957
 21
8.582402229309082
 31
0.0
  0
LINE
  5
218
330
1F
100
AcDbEntity
  8
Layer0$C$L0$V_TOP
100
AcDbLine
 10
-15.79451656341553
 20
8.503532409667969
 30
0.0
 11
-17.0457649230957
 21
8.503532409667969
 31
0.0
  0
LINE
  5
219
330
1F
100
AcDbEntity
  8
Layer0$C$L0$V_TOP
100
AcDbLine
 10
-15.79451656341553
 20
8.582402229309082
 30
0.0
 11
-17.0457649230957
 21
8.582402229309082
 31
0.0
  0
CIRCLE
  5
21A
330
1F
100
AcDbEntity
  8
Layer0$C$L0$V_TOP
100
AcDbCircle
 10
-16.82268524169922
 20
8.136242866516113
 30
0.0
 40
0.0972400009632111
  0
LINE
  5
21B
330
1F
100
AcDbEntity
  8
Layer0$C$L0$V_TOP
100
AcDbLine
 10
-17.0457649230957
 20
8.381128311157227
 30
0.0
 11
-15.79451656341553
 21
8.381128311157227
 31
0.0
  0
LINE
  5
21C
330
1F
100
AcDbEntity
  8
Layer0$C$L0$V_TOP
100
AcDbLine
 10
-3.49189281463623
 20
6.639031887054443
 30
0.0
 11
-4.621892929077148
 21
6.639031887054443
 31
0.0
  0
LINE
  5
21D
330
1F
100
AcDbEntity
  8
Layer0$C$L0$V_TOP
100
AcDbLine
 10
-3.34410285949707
 20
6.793471813201904
 30
0.0
 11
-3.34410285949707
 21
6.973651885986328
 31
0.0
  0
LINE
  5
21E
330
1F
100
AcDbEntity
  8
Layer0$C$L0$V_TOP
100
AcDbLine
 10
-3.455643653869629
 20
6.793471813201904
 30
0.0
 11
-3.455643653869629
 21
6.973651885986328
 31
0.0
  0
ARC
  5
21F
330
1F
100
AcDbEntity
  8
Layer0$C$L0$V_TOP
100
AcDbCircle
 10
-3.498542785644531
 20
6.793471813201904
 30
0.0
 40
0.0428999960422516
100
AcDbArc
 50
270.000000683246
 51
359.9999826971568
  0
LINE
  5
220
330
1F
100
AcDbEntity
  8
Layer0$C$L0$V_TOP
100
AcDbLine
 10
-3.498542785644531
 20
6.750571727752686
 30
0.0
 11
-4.485241889953613
 21
6.750571727752686
 31
0.0
  0
ARC
  5
221
330
1F
100
AcDbEntity
  8
Layer0$C$L0$V_TOP
100
AcDbCircle
 10
-3.498542785644531
 20
6.793471813201904
 30
0.0
 40
0.1544400006532669
100
AcDbArc
 50
270.000000683246
 51
359.9999826971568
  0
ARC
  5
222
330
1F
100
AcDbEntity
  8
Layer0$C$L0$V_TOP
100
AcDbCircle
 10
-4.485241889953613
 20
6.793471813201904
 30
0.0
 40
0.1544400006532669
100
AcDbArc
 50
180.0000186693351
 51
270.000000683246
  0
ARC
  5
223
330
1F
100
AcDbEntity
  8
Layer0$C$L0$V_TOP
100
AcDbCircle
 10
-4.485241889953613
 20
6.793471813201904
 30
0.0
 40
0.0428999960422516
100
AcDbArc
 50
180.0000186693351
 51
270.000000683246
  0
LINE
  5
224
330
1F
100
AcDbEntity
  8
Layer0$C$L0$V_TOP
100
AcDbLine
 10
-4.528142929077148
 20
6.793471813201904
 30
0.0
 11
-4.528142929077148
 21
6.973651885986328
 31
0.0
  0
LINE
  5
225
330
1F
100
AcDbEntity
  8
Layer0$C$L0$V_TOP
100
AcDbLine
 10
-4.639682769775391
 20
6.639031887054443
 30
0.0
 11
-4.639682769775391
 21
7.639031887054443
 31
0.0
  0
ARC
  5
226
330
1F
100
AcDbEntity
  8
Layer0$C$L0$V_TOP
100
AcDbCircle
 10
-3.527142524719238
 20
6.973651885986328
 30
0.0
 40
0.0714999958872795
100
AcDbArc
 50
359.9999826971568
 51
65.96698788989396
  0
LINE
  5
227
330
1F
100
AcDbEntity
  8
Layer0$C$L0$V_TOP
100
AcDbLine
 10
-3.903232574462891
 20
7.331151962280273
 30
0.0
 11
-3.943987846374512
 21
8.34520149230957
 31
0.0
  0
LINE
  5
228
330
1F
100
AcDbEntity
  8
Layer0$C$L0$V_TOP
100
AcDbLine
 10
-3.791782379150391
 20
7.335631370544434
 30
0.0
 11
-3.832710266113281
 21
8.353963851928711
 31
0.0
  0
ARC
  5
229
330
1F
100
AcDbEntity
  8
Layer0$C$L0$V_TOP
100
AcDbCircle
 10
-3.720340728759766
 20
7.338502407073975
 30
0.0
 40
0.0714999958872795
100
AcDbArc
 50
182.3015192120626
 51
245.9669965413155
  0
LINE
  5
22A
330
1F
100
AcDbEntity
  8
Layer0$C$L0$V_TOP
100
AcDbLine
 10
-3.811826705932617
 20
8.40310287475586
 30
0.0
 11
-3.711398124694824
 21
8.503530502319336
 31
0.0
  0
LINE
  5
22B
330
1F
100
AcDbEntity
  8
Layer0$C$L0$V_TOP
100
AcDbLine
 10
-3.890697479248047
 20
8.481973648071289
 30
0.0
 11
-3.790268898010254
 21
8.582401275634766
 31
0.0
  0
ARC
  5
22C
330
1F
100
AcDbEntity
  8
Layer0$C$L0$V_TOP
100
AcDbCircle
 10
-3.720340728759766
 20
7.338502407073975
 30
0.0
 40
0.1830400079488754
100
AcDbArc
 50
182.3015192120626
 51
245.9669965413155
  0
ARC
  5
22D
330
1F
100
AcDbEntity
  8
Layer0$C$L0$V_TOP
100
AcDbCircle
 10
-3.761268615722656
 20
8.352544784545898
 30
0.0
 40
0.0714999958872795
100
AcDbArc
 50
134.9999730208663
 51
182.3015192120626
  0
ARC
  5
22E
330
1F
100
AcDbEntity
  8
Layer0$C$L0$V_TOP
100
AcDbCircle
 10
-3.761268615722656
 20
8.352544784545898
 30
0.0
 40
0.1830400079488754
100
AcDbArc
 50
134.9999730208663
 51
182.3015192120626
  0
LINE
  5
22F
330
1F
100
AcDbEntity
  8
Layer0$C$L0$V_TOP
100
AcDbLine
 10
-3.711398124694824
 20
8.503530502319336
 30
0.0
 11
-3.790268898010254
 21
8.582401275634766
 31
0.0
  0
ARC
  5
230
330
1F
100
AcDbEntity
  8
Layer0$C$L0$V_TOP
100
AcDbCircle
 10
-3.527142524719238
 20
6.973651885986328
 30
0.0
 40
0.1830400079488754
100
AcDbArc
 50
359.9999826971568
 51
65.96698788989396
  0
LINE
  5
231
330
1F
100
AcDbEntity
  8
Layer0$C$L0$V_TOP
100
AcDbLine
 10
-4.27238655090332
 20
8.503530502319336
 30
0.0
 11
-4.193515777587891
 21
8.582401275634766
 31
0.0
  0
ARC
  5
232
330
1F
100
AcDbEntity
  8
Layer0$C$L0$V_TOP
100
AcDbCircle
 10
-4.222517013549805
 20
8.352544784545898
 30
0.0
 40
0.1830400079488754
100
AcDbArc
 50
357.6984821544293
 51
45.00000102486886
  0
ARC
  5
233
330
1F
100
AcDbEntity
  8
Layer0$C$L0$V_TOP
100
AcDbCircle
 10
-4.222517013549805
 20
8.352544784545898
 30
0.0
 40
0.0714999958872795
100
AcDbArc
 50
357.6984821544293
 51
45.00000102486886
  0
LINE
  5
234
330
1F
100
AcDbEntity
  8
Layer0$C$L0$V_TOP
100
AcDbLine
 10
-4.093088150024414
 20
8.481973648071289
 30
0.0
 11
-4.193515777587891
 21
8.582401275634766
 31
0.0
  0
LINE
  5
235
330
1F
100
AcDbEntity
  8
Layer0$C$L0$V_TOP
100
AcDbLine
 10
-4.171958923339844
 20
8.40310287475586
 30
0.0
 11
-4.27238655090332
 21
8.503530502319336
 31
0.0
  0
LINE
  5
236
330
1F
100
AcDbEntity
  8
Layer0$C$L0$V_TOP
100
AcDbLine
 10
-4.192002296447754
 20
7.335631370544434
 30
0.0
 11
-4.151074409484863
 21
8.353963851928711
 31
0.0
  0
LINE
  5
237
330
1F
100
AcDbEntity
  8
Layer0$C$L0$V_TOP
100
AcDbLine
 10
-4.080552101135254
 20
7.331151962280273
 30
0.0
 11
-4.039796829223633
 21
8.34520149230957
 31
0.0
  0
LINE
  5
238
330
1F
100
AcDbEntity
  8
Layer0$C$L0$V_TOP
  6
DASHED
100
AcDbLine
 10
-3.890181541442871
 20
7.331952095031738
 30
0.0
 11
-3.902689933776855
 21
7.331952095031738
 31
0.0
  0
LINE
  5
239
330
1F
100
AcDbEntity
  8
Layer0$C$L0$V_TOP
100
AcDbLine
 10
-3.890181541442871
 20
7.220412254333496
 30
0.0
 11
-4.036222457885742
 21
7.220412254333496
 31
0.0
  0
LINE
  5
23A
330
1F
100
AcDbEntity
  8
Layer0$C$L0$V_TOP
100
AcDbLine
 10
-4.036222457885742
 20
7.220412254333496
 30
0.0
 11
-4.036222457885742
 21
7.331952095031738
 31
0.0
  0
LINE
  5
23B
330
1F
100
AcDbEntity
  8
Layer0$C$L0$V_TOP
100
AcDbLine
 10
-3.902689933776855
 20
7.331952095031738
 30
0.0
 11
-4.036222457885742
 21
7.331952095031738
 31
0.0
  0
LINE
  5
23C
330
1F
100
AcDbEntity
  8
Layer0$C$L0$V_TOP
100
AcDbLine
 10
-3.452597618103027
 20
7.140824317932129
 30
0.0
 11
-3.749460220336914
 21
7.273200988769531
 31
0.0
  0
LINE
  5
23D
330
1F
100
AcDbEntity
  8
Layer0$C$L0$V_TOP
100
AcDbLine
 10
-3.49802303314209
 20
7.038953304290771
 30
0.0
 11
-3.794885635375977
 21
7.171329975128174
 31
0.0
  0
LINE
  5
23E
330
1F
100
AcDbEntity
  8
Layer0$C$L0$V_TOP
100
AcDbLine
 10
-4.485761642456055
 20
7.038953304290771
 30
0.0
 11
-4.188899040222168
 21
7.171329975128174
 31
0.0
  0
LINE
  5
23F
330
1F
100
AcDbEntity
  8
Layer0$C$L0$V_TOP
100
AcDbLine
 10
-4.531188011169434
 20
7.140824317932129
 30
0.0
 11
-4.234325408935547
 21
7.273200988769531
 31
0.0
  0
ARC
  5
240
330
1F
100
AcDbEntity
  8
Layer0$C$L0$V_TOP
100
AcDbCircle
 10
-4.456642150878906
 20
6.973651885986328
 30
0.0
 40
0.1830400079488754
100
AcDbArc
 50
114.0330134765979
 51
180.0000186693351
  0
ARC
  5
241
330
1F
100
AcDbEntity
  8
Layer0$C$L0$V_TOP
100
AcDbCircle
 10
-4.263444900512695
 20
7.338502407073975
 30
0.0
 40
0.1830400079488754
100
AcDbArc
 50
294.0330048251764
 51
357.6984821544293
  0
ARC
  5
242
330
1F
100
AcDbEntity
  8
Layer0$C$L0$V_TOP
100
AcDbCircle
 10
-4.263444900512695
 20
7.338502407073975
 30
0.0
 40
0.0714999958872795
100
AcDbArc
 50
294.0330048251764
 51
357.6984821544293
  0
ARC
  5
243
330
1F
100
AcDbEntity
  8
Layer0$C$L0$V_TOP
100
AcDbCircle
 10
-4.456642150878906
 20
6.973651885986328
 30
0.0
 40
0.0714999958872795
100
AcDbArc
 50
114.0330134765979
 51
180.0000186693351
  0
ARC
  5
244
330
1F
100
AcDbEntity
  8
Layer0$C$L0$V_TOP
100
AcDbCircle
 10
-3.890181541442871
 20
7.14891242980957
 30
0.0
 40
0.0714999958872795
100
AcDbArc
 50
48.14489355367986
 51
89.9999956742892
  0
LINE
  5
245
330
1F
100
AcDbEntity
  8
Layer0$C$L0$V_TOP
100
AcDbLine
 10
-5.79169225692749
 20
6.389031887054197
 30
0.0
 11
-3.227692127227783
 21
6.389031887054196
 31
0.0
  0
LINE
  5
246
330
1F
100
AcDbEntity
  8
Layer0$C$L0$V_TOP
100
AcDbLine
 10
-5.759692668914795
 20
6.389031887054444
 30
0.0
 11
-5.759692668914795
 21
7.639031887054581
 31
0.0
  0
LINE
  5
247
330
1F
100
AcDbEntity
  8
Layer0$C$L0$V_TOP
100
AcDbLine
 10
-5.759692668914813
 20
7.639031887054197
 30
0.0
 11
-4.639692664146423
 21
7.639031887054196
 31
0.0
  0
CIRCLE
  5
248
330
1F
100
AcDbEntity
  8
Layer0$C$L0$V_TOP
100
AcDbCircle
 10
-5.199692666530609
 20
7.049031913280241
 30
0.0
 40
0.3589999973773956
  0
LINE
  5
249
330
1F
100
AcDbEntity
  8
Layer0$C$L0$V_TOP
100
AcDbLine
 10
-15.79513835906982
 20
6.38903284072876
 30
0.0
 11
-15.79513835906982
 21
7.639032840728897
 31
0.0
  0
LINE
  5
24A
330
1F
100
AcDbEntity
  8
Layer0$C$L0$V_TOP
100
AcDbLine
 10
-17.04513835906982
 20
7.639032840728513
 30
0.0
 11
-15.79513835906982
 21
7.639032840728513
 31
0.0
  0
LINE
  5
24B
330
1F
100
AcDbEntity
  8
Layer0$C$L0$V_TOP
100
AcDbLine
 10
-17.34213829040527
 20
6.389032840728513
 30
0.0
 11
-9.778138160705566
 21
6.389032840728513
 31
0.0
  0
LINE
  5
24C
330
1F
100
AcDbEntity
  8
Layer0$C$L0$V_TOP
100
AcDbLine
 10
-17.04513835906982
 20
6.38903284072876
 30
0.0
 11
-17.04513835906982
 21
7.639032840728897
 31
0.0
  0
LINE
  5
24D
330
1F
100
AcDbEntity
  8
Layer0$C$L0$V_TOP
100
AcDbLine
 10
-15.79513931274414
 20
10.32666740417479
 30
0.0
 11
-15.79513931274414
 21
12.74225803315639
 31
0.0
  0
LINE
  5
24E
330
1F
100
AcDbEntity
  8
Layer0$C$L0$V_TOP
100
AcDbLine
 10
-17.04513931274414
 20
10.32666740417479
 30
0.0
 11
-17.04513931274414
 21
12.74225803315639
 31
0.0
  0
LINE
  5
24F
330
1F
100
AcDbEntity
  8
Layer0$C$L0$V_TOP
100
AcDbLine
 10
-15.7951393127452
 20
10.3266674041748
 30
0.0
 11
-17.04513931274414
 21
10.3266674041748
 31
0.0
  0
LINE
  5
250
330
1F
100
AcDbEntity
  8
Layer0$C$L0$V_TOP
100
AcDbLine
 10
-15.79513931274414
 20
11.44666740894318
 30
0.0
 11
-17.04513931274414
 21
11.44666740894318
 31
0.0
  0
LINE
  5
251
330
1F
100
AcDbEntity
  8
Layer0$C$L0$V_TOP
  6
DASHED
100
AcDbLine
 10
-15.79513931274479
 20
12.5766674041748
 30
0.0
 11
-17.0451393127445
 21
12.5766674041748
 31
0.0
  0
LINE
  5
253
330
1F
100
AcDbEntity
  8
Layer0$C$L0$V_TOP
100
AcDbLine
 10
-5.656692028045654
 20
6.389031887054443
 30
0.0
 11
-5.655426502227783
 21
6.534032344818115
 31
0.0
  0
LINE
  5
254
330
1F
100
AcDbEntity
  8
Layer0$C$L0$V_TOP
100
AcDbLine
 10
-3.362692832946777
 20
6.389031887054443
 30
0.0
 11
-3.363958358764648
 21
6.534032344818115
 31
0.0
  0
ARC
  5
255
330
1F
100
AcDbEntity
  8
Layer0$C$L0$V_TOP
100
AcDbCircle
 10
-11.4186372756958
 20
12.6336669921875
 30
0.0
 40
0.0900000035762787
100
AcDbArc
 50
0.000010017912262
 51
89.99998884410003
  0
ARC
  5
256
330
1F
100
AcDbEntity
  8
Layer0$C$L0$V_TOP
100
AcDbCircle
 10
-11.48863697052002
 20
12.6336669921875
 30
0.0
 40
0.0900000035762787
100
AcDbArc
 50
90.00000250447836
 51
180.0000050089567
  0
ARC
  5
257
330
1F
100
AcDbEntity
  8
Layer0$C$L0$V_TOP
100
AcDbCircle
 10
-9.961637496948242
 20
12.6336669921875
 30
0.0
 40
0.0900000035762787
100
AcDbArc
 50
90.00000250447836
 51
180.0000050089567
  0
ARC
  5
258
330
1F
100
AcDbEntity
  8
Layer0$C$L0$V_TOP
100
AcDbCircle
 10
-9.891637802124023
 20
12.6336669921875
 30
0.0
 40
0.0900000035762787
100
AcDbArc
 50
0.000010017912262
 51
89.99998884410003
  0
ARC
  5
259
330
1F
100
AcDbEntity
  8
Layer0$C$L0$V_TOP
100
AcDbCircle
 10
-9.891637802124023
 20
10.51966857910156
 30
0.0
 40
0.0900000035762787
100
AcDbArc
 50
270.000000683246
 51
0.0000100179134324
  0
ARC
  5
25A
330
1F
100
AcDbEntity
  8
Layer0$C$L0$V_TOP
100
AcDbCircle
 10
-9.961637496948242
 20
10.51966857910156
 30
0.0
 40
0.0900000035762787
100
AcDbArc
 50
180.0000050089567
 51
270.000000683246
  0
ARC
  5
25B
330
1F
100
AcDbEntity
  8
Layer0$C$L0$V_TOP
100
AcDbCircle
 10
-11.4186372756958
 20
10.51966857910156
 30
0.0
 40
0.0900000035762787
100
AcDbArc
 50
270.000000683246
 51
0.0000100179134324
  0
ARC
  5
25C
330
1F
100
AcDbEntity
  8
Layer0$C$L0$V_TOP
100
AcDbCircle
 10
-11.48863697052002
 20
10.51966857910156
 30
0.0
 40
0.0900000035762787
100
AcDbArc
 50
180.0000050089567
 51
270.000000683246
  0
ARC
  5
25D
330
1F
100
AcDbEntity
  8
Layer0$C$L0$V_TOP
100
AcDbCircle
 10
-15.70163822174072
 20
12.6336669921875
 30
0.0
 40
0.0900000035762787
100
AcDbArc
 50
90.00000250447836
 51
180.0000050089567
  0
ARC
  5
25E
330
1F
100
AcDbEntity
  8
Layer0$C$L0$V_TOP
100
AcDbCircle
 10
-15.6316385269165
 20
12.6336669921875
 30
0.0
 40
0.0900000035762787
100
AcDbArc
 50
0.000010017912262
 51
89.99998884410003
  0
ARC
  5
25F
330
1F
100
AcDbEntity
  8
Layer0$C$L0$V_TOP
100
AcDbCircle
 10
-15.6316385269165
 20
10.51966857910156
 30
0.0
 40
0.0900000035762787
100
AcDbArc
 50
270.000000683246
 51
0.0000100179134324
  0
ARC
  5
260
330
1F
100
AcDbEntity
  8
Layer0$C$L0$V_TOP
100
AcDbCircle
 10
-15.70163822174072
 20
10.51966857910156
 30
0.0
 40
0.0900000035762787
100
AcDbArc
 50
180.0000050089567
 51
270.000000683246
  0
ARC
  5
261
330
1F
100
AcDbEntity
  8
Layer0$C$L0$V_TOP
100
AcDbCircle
 10
-17.15863800048828
 20
10.51966857910156
 30
0.0
 40
0.0900000035762787
100
AcDbArc
 50
270.000000683246
 51
0.0000100179134324
  0
ARC
  5
262
330
1F
100
AcDbEntity
  8
Layer0$C$L0$V_TOP
100
AcDbCircle
 10
-17.2286376953125
 20
10.51966857910156
 30
0.0
 40
0.0900000035762787
100
AcDbArc
 50
180.0000050089567
 51
270.000000683246
  0
ARC
  5
263
330
1F
100
AcDbEntity
  8
Layer0$C$L0$V_TOP
100
AcDbCircle
 10
-17.15863800048828
 20
12.6336669921875
 30
0.0
 40
0.0900000035762787
100
AcDbArc
 50
0.000010017912262
 51
89.99998884410003
  0
ARC
  5
264
330
1F
100
AcDbEntity
  8
Layer0$C$L0$V_TOP
100
AcDbCircle
 10
-17.2286376953125
 20
12.6336669921875
 30
0.0
 40
0.0900000035762787
100
AcDbArc
 50
90.00000250447836
 51
180.0000050089567
  0
LINE
  5
265
330
1F
100
AcDbEntity
  8
Layer0$C$L0$V_TOP
100
AcDbLine
 10
-11.57887172698975
 20
6.534032344818115
 30
0.0
 11
-11.32840251922607
 21
6.534032344818115
 31
0.0
  0
ARC
  5
266
330
1F
100
AcDbEntity
  8
Layer0$C$L0$V_TOP
100
AcDbCircle
 10
-9.78282356262207
 20
6.17099142074585
 30
0.0
 40
0.2179999947547913
100
AcDbArc
 50
359.9999826971568
 51
89.99999203182429
  0
LINE
  5
267
330
1F
100
AcDbEntity
  8
Layer0$C$L0$V_TOP
100
AcDbLine
 10
-9.560137748718262
 20
5.634032726287842
 30
0.0
 11
-9.564823150634766
 21
6.17099142074585
 31
0.0
  0
LINE
  5
268
330
1F
100
AcDbEntity
  8
Layer0$C$L0$V_TOP
100
AcDbLine
 10
-10.05313777923584
 20
6.38903284072876
 30
0.0
 11
-10.05187225341797
 21
6.534032344818115
 31
0.0
  0
LINE
  5
269
330
1F
100
AcDbEntity
  8
Layer0$C$L0$V_TOP
100
AcDbLine
 10
-9.800137519836426
 20
6.38903284072876
 30
0.0
 11
-9.801403045654297
 21
6.534032344818115
 31
0.0
  0
LINE
  5
26A
330
1F
100
AcDbEntity
  8
Layer0$C$L0$V_TOP
100
AcDbLine
 10
-11.3271369934082
 20
6.38903284072876
 30
0.0
 11
-11.32840251922607
 21
6.534032344818115
 31
0.0
  0
LINE
  5
26B
330
1F
100
AcDbEntity
  8
Layer0$C$L0$V_TOP
100
AcDbLine
 10
-11.58013725280762
 20
6.38903284072876
 30
0.0
 11
-11.57887172698975
 21
6.534032344818115
 31
0.0
  0
LINE
  5
26C
330
1F
100
AcDbEntity
  8
Layer0$C$L0$V_TOP
100
AcDbLine
 10
-15.54013824462891
 20
6.38903284072876
 30
0.0
 11
-15.54140377044678
 21
6.534032344818115
 31
0.0
  0
LINE
  5
26D
330
1F
100
AcDbEntity
  8
Layer0$C$L0$V_TOP
100
AcDbLine
 10
-15.79313850402832
 20
6.38903284072876
 30
0.0
 11
-15.79187297821045
 21
6.534032344818115
 31
0.0
  0
LINE
  5
26E
330
1F
100
AcDbEntity
  8
Layer0$C$L0$V_TOP
100
AcDbLine
 10
-17.32013893127441
 20
6.38903284072876
 30
0.0
 11
-17.31887245178223
 21
6.534032344818115
 31
0.0
  0
LINE
  5
26F
330
1F
100
AcDbEntity
  8
Layer0$C$L0$V_TOP
100
AcDbLine
 10
-17.067138671875
 20
6.38903284072876
 30
0.0
 11
-17.06840324401855
 21
6.534032344818115
 31
0.0
  0
LINE
  5
270
330
1F
100
AcDbEntity
  8
Layer0$C$L0$V_TOP
100
AcDbLine
 10
-17.56013870239258
 20
5.634032726287842
 30
0.0
 11
-17.55545234680176
 21
6.17099142074585
 31
0.0
  0
LINE
  5
271
330
1F
100
AcDbEntity
  8
Layer0$C$L0$V_TOP
100
AcDbLine
 10
-13.2297945022583
 20
12.08207702636719
 30
0.0
 11
-13.27811527252197
 21
12.08207702636719
 31
0.0
  0
LINE
  5
272
330
1F
100
AcDbEntity
  8
Layer0$C$L0$V_TOP
100
AcDbLine
 10
-13.06932353973389
 20
12.10457611083984
 30
0.0
 11
-13.27811527252197
 21
12.10457611083984
 31
0.0
  0
LINE
  5
273
330
1F
100
AcDbEntity
  8
Layer0$C$L0$V_TOP
100
AcDbLine
 10
-13.18496799468994
 20
12.1270809173584
 30
0.0
 11
-13.24899768829346
 21
12.1270809173584
 31
0.0
  0
LINE
  5
274
330
1F
100
AcDbEntity
  8
Layer0$C$L0$V_TOP
100
AcDbLine
 10
-13.2297945022583
 20
12.05957794189453
 30
0.0
 11
-13.24899768829346
 21
12.05957794189453
 31
0.0
  0
ARC
  5
275
330
1F
100
AcDbEntity
  8
Layer0$C$L0$V_TOP
100
AcDbCircle
 10
-13.17371845245361
 20
12.09332656860352
 30
0.0
 40
0.1500000059604645
100
AcDbArc
 50
119.9999896789262
 51
59.99999802718735
  0
ARC
  5
276
330
1F
100
AcDbEntity
  8
Layer0$C$L0$V_TOP
100
AcDbCircle
 10
-13.17371845245361
 20
12.09332656860352
 30
0.0
 40
0.1274999976158142
100
AcDbArc
 50
119.9999896789262
 51
59.99997070643067
  0
ARC
  5
277
330
1F
100
AcDbEntity
  8
Layer0$C$L0$V_TOP
100
AcDbCircle
 10
-13.17371845245361
 20
12.09332656860352
 30
0.0
 40
0.0825000107288361
100
AcDbArc
 50
97.83748065252794
 51
155.8522536889701
  0
ARC
  5
278
330
1F
100
AcDbEntity
  8
Layer0$C$L0$V_TOP
100
AcDbCircle
 10
-13.17371845245361
 20
12.09332656860352
 30
0.0
 40
0.0825000107288361
100
AcDbArc
 50
59.99998117908473
 51
82.1625243564288
  0
ARC
  5
279
330
1F
100
AcDbEntity
  8
Layer0$C$L0$V_TOP
100
AcDbCircle
 10
-13.17371845245361
 20
12.09332656860352
 30
0.0
 40
0.1050000116229057
100
AcDbArc
 50
59.99998117908473
 51
173.8493650198469
  0
ARC
  5
27A
330
1F
100
AcDbEntity
  8
Layer0$C$L0$V_TOP
100
AcDbCircle
 10
-13.17371845245361
 20
12.09332656860352
 30
0.0
 40
0.0825000107288361
100
AcDbArc
 50
204.1477290081866
 51
240.000006678609
  0
ARC
  5
27B
330
1F
100
AcDbEntity
  8
Layer0$C$L0$V_TOP
100
AcDbCircle
 10
-13.17371845245361
 20
12.09332656860352
 30
0.0
 40
0.1050000116229057
100
AcDbArc
 50
186.1506313376883
 51
249.6858979406041
  0
LINE
  5
27C
330
1F
100
AcDbEntity
  8
Layer0$C$L0$V_TOP
100
AcDbLine
 10
-13.18496799468994
 20
12.1270809173584
 30
0.0
 11
-13.18496799468994
 21
12.1750602722168
 31
0.0
  0
LINE
  5
27D
330
1F
100
AcDbEntity
  8
Layer0$C$L0$V_TOP
100
AcDbLine
 10
-13.16246891021729
 20
12.1270809173584
 30
0.0
 11
-13.16246891021729
 21
12.1750602722168
 31
0.0
  0
LINE
  5
27E
330
1F
100
AcDbEntity
  8
Layer0$C$L0$V_TOP
100
AcDbLine
 10
-13.2297945022583
 20
12.05957794189453
 30
0.0
 11
-13.2297945022583
 21
12.08207702636719
 31
0.0
  0
LINE
  5
27F
330
1F
100
AcDbEntity
  8
Layer0$C$L0$V_TOP
100
AcDbLine
 10
-13.09843730926514
 20
12.05957794189453
 30
0.0
 11
-13.14545154571533
 21
12.05957794189453
 31
0.0
  0
LINE
  5
280
330
1F
100
AcDbEntity
  8
Layer0$C$L0$V_TOP
100
AcDbLine
 10
-13.06932353973389
 20
12.08207702636719
 30
0.0
 11
-13.15477085113525
 21
12.08207702636719
 31
0.0
  0
LINE
  5
281
330
1F
100
AcDbEntity
  8
Layer0$C$L0$V_TOP
100
AcDbLine
 10
-13.12121868133545
 20
12.00239753723145
 30
0.0
 11
-13.13246822357178
 21
12.02188110351562
 31
0.0
  0
ARC
  5
282
330
1F
100
AcDbEntity
  8
Layer0$C$L0$V_TOP
100
AcDbCircle
 10
-13.17371845245361
 20
12.09332656860352
 30
0.0
 40
0.1050000116229057
100
AcDbArc
 50
299.9999946878829
 51
353.8493700288036
  0
ARC
  5
283
330
1F
100
AcDbEntity
  8
Layer0$C$L0$V_TOP
100
AcDbCircle
 10
-13.17371845245361
 20
12.09332656860352
 30
0.0
 40
0.0825000107288361
100
AcDbArc
 50
299.9999946878829
 51
335.8522860186835
  0
LINE
  5
284
330
1F
100
AcDbEntity
  8
Layer0$C$L0$V_TOP
100
AcDbLine
 10
-13.15477085113525
 20
12.08207702636719
 30
0.0
 11
-13.21496868133545
 21
12.02188110351562
 31
0.0
  0
LINE
  5
285
330
1F
100
AcDbEntity
  8
Layer0$C$L0$V_TOP
100
AcDbLine
 10
-13.14545154571533
 20
12.05957794189453
 30
0.0
 11
-13.21017169952393
 21
11.9948558807373
 31
0.0
  0
ARC
  5
286
330
1F
100
AcDbEntity
  8
Layer0$C$L0$V_TOP
100
AcDbCircle
 10
-13.17371845245361
 20
12.09332656860352
 30
0.0
 40
0.1050000116229057
100
AcDbArc
 50
6.150645111751734
 51
18.74933884719048
  0
LINE
  5
287
330
1F
100
AcDbEntity
  8
Layer0$C$L0$V_TOP
100
AcDbLine
 10
-13.23746776580811
 20
12.20374488830566
 30
0.0
 11
-13.24871730804443
 21
12.22323417663574
 31
0.0
  0
LINE
  5
288
330
1F
100
AcDbEntity
  8
Layer0$C$L0$V_TOP
100
AcDbLine
 10
-13.10996723175049
 20
12.20374488830566
 30
0.0
 11
-13.09871768951416
 21
12.22323417663574
 31
0.0
  0
LINE
  5
289
330
1F
100
AcDbEntity
  8
Layer0$C$L0$V_TOP
100
AcDbLine
 10
-13.13246822357178
 20
12.1647777557373
 30
0.0
 11
-13.12121868133545
 21
12.18426132202148
 31
0.0
  0
LINE
  5
28A
330
1F
100
AcDbEntity
  8
Layer0$C$L0$V_TOP
100
AcDbLine
 10
-13.07429027557373
 20
12.1270809173584
 30
0.0
 11
-13.16246891021729
 21
12.1270809173584
 31
0.0
  0
LINE
  5
28B
330
1F
100
AcDbEntity
  8
Layer0$C$L0$V_TOP
100
AcDbLine
 10
-13.27728748321533
 20
11.0539379119873
 30
0.0
 11
-13.27728748321533
 21
11.08393859863281
 31
0.0
  0
LINE
  5
28C
330
1F
100
AcDbEntity
  8
Layer0$C$L0$V_TOP
100
AcDbLine
 10
-13.18278789520264
 20
11.00293731689453
 30
0.0
 11
-13.27728748321533
 21
11.00293731689453
 31
0.0
  0
LINE
  5
28D
330
1F
100
AcDbEntity
  8
Layer0$C$L0$V_TOP
100
AcDbLine
 10
-13.18128490447998
 20
11.03293800354004
 30
0.0
 11
-13.27728748321533
 21
11.03293800354004
 31
0.0
  0
LINE
  5
28E
330
1F
100
AcDbEntity
  8
Layer0$C$L0$V_TOP
100
AcDbLine
 10
-13.18128490447998
 20
11.0539379119873
 30
0.0
 11
-13.27728748321533
 21
11.0539379119873
 31
0.0
  0
LINE
  5
28F
330
1F
100
AcDbEntity
  8
Layer0$C$L0$V_TOP
100
AcDbLine
 10
-13.18278789520264
 20
11.08393859863281
 30
0.0
 11
-13.27728748321533
 21
11.08393859863281
 31
0.0
  0
LINE
  5
290
330
1F
100
AcDbEntity
  8
Layer0$C$L0$V_TOP
100
AcDbLine
 10
-13.1467866897583
 20
11.0389404296875
 30
0.0
 11
-13.1467866897583
 21
11.04793548583984
 31
0.0
  0
ARC
  5
291
330
1F
100
AcDbEntity
  8
Layer0$C$L0$V_TOP
100
AcDbCircle
 10
-13.18278789520264
 20
11.0389404296875
 30
0.0
 40
0.0360000021755695
100
AcDbArc
 50
270.000000683246
 51
0.0000100179134324
  0
ARC
  5
292
330
1F
100
AcDbEntity
  8
Layer0$C$L0$V_TOP
100
AcDbCircle
 10
-13.18278789520264
 20
11.04793548583984
 30
0.0
 40
0.0360000021755695
100
AcDbArc
 50
0.0000050089569452
 51
90.00000250447836
  0
ARC
  5
293
330
1F
100
AcDbEntity
  8
Layer0$C$L0$V_TOP
100
AcDbCircle
 10
-13.18128490447998
 20
11.04343795776367
 30
0.0
 40
0.0105000007897615
100
AcDbArc
 50
270.000000683246
 51
89.99999203182429
  0
LINE
  5
294
330
1F
100
AcDbEntity
  8
Layer0$C$L0$V_TOP
100
AcDbLine
 10
-13.27728748321533
 20
11.00293731689453
 30
0.0
 11
-13.27728748321533
 21
11.03293800354004
 31
0.0
  0
LINE
  5
295
330
1F
100
AcDbEntity
  8
Layer0$C$L0$V_TOP
100
AcDbLine
 10
-13.10478687286377
 20
11.09593772888184
 30
0.0
 11
-13.23228549957275
 21
11.09593772888184
 31
0.0
  0
LINE
  5
296
330
1F
100
AcDbEntity
  8
Layer0$C$L0$V_TOP
100
AcDbLine
 10
-13.12878513336182
 20
11.12593841552734
 30
0.0
 11
-13.23228549957275
 21
11.12593841552734
 31
0.0
  0
LINE
  5
297
330
1F
100
AcDbEntity
  8
Layer0$C$L0$V_TOP
100
AcDbLine
 10
-13.10478687286377
 20
11.16193580627441
 30
0.0
 11
-13.12878513336182
 21
11.16193580627441
 31
0.0
  0
LINE
  5
298
330
1F
100
AcDbEntity
  8
Layer0$C$L0$V_TOP
100
AcDbLine
 10
-13.10478687286377
 20
11.09593772888184
 30
0.0
 11
-13.10478687286377
 21
11.16193580627441
 31
0.0
  0
LINE
  5
299
330
1F
100
AcDbEntity
  8
Layer0$C$L0$V_TOP
100
AcDbLine
 10
-13.12878513336182
 20
11.12593841552734
 30
0.0
 11
-13.12878513336182
 21
11.16193580627441
 31
0.0
  0
LINE
  5
29A
330
1F
100
AcDbEntity
  8
Layer0$C$L0$V_TOP
100
AcDbLine
 10
-13.23228549957275
 20
11.09593772888184
 30
0.0
 11
-13.23228549957275
 21
11.12593841552734
 31
0.0
  0
CIRCLE
  5
29B
330
1F
100
AcDbEntity
  8
Layer0$C$L0$V_TOP
100
AcDbCircle
 10
-13.19103527069092
 20
11.08318901062012
 30
0.0
 40
0.1282522082328796
  0
CIRCLE
  5
29C
330
1F
100
AcDbEntity
  8
Layer0$C$L0$V_TOP
100
AcDbCircle
 10
-13.19103527069092
 20
11.08318901062012
 30
0.0
 40
0.1462522149085999
  0
ARC
  5
29D
330
1F
100
AcDbEntity
  8
Layer0$C$L0$V_TOP
100
AcDbCircle
 10
-5.786998271942139
 20
6.171031475067139
 30
0.0
 40
0.2179999947547913
100
AcDbArc
 50
89.9999956742892
 51
179.4999805201984
  0
LINE
  5
29E
330
1F
100
AcDbEntity
  8
Layer0$C$L0$V_TOP
100
AcDbLine
 10
-6.009693145751953
 20
5.634032726287842
 30
0.0
 11
-6.004989624023438
 21
6.172934055328369
 31
0.0
  0
ARC
  5
29F
330
1F
100
AcDbEntity
  8
Layer0$C$L0$V_TOP
100
AcDbCircle
 10
-3.232386589050293
 20
6.171031475067139
 30
0.0
 40
0.2179999947547913
100
AcDbArc
 50
0.4999784917031028
 51
89.9999956742892
  0
LINE
  5
2A0
330
1F
100
AcDbEntity
  8
Layer0$C$L0$V_TOP
100
AcDbLine
 10
-3.009692192077637
 20
5.634032726287842
 30
0.0
 11
-3.014394760131836
 21
6.172934055328369
 31
0.0
  0
CIRCLE
  5
2A1
330
1F
100
AcDbEntity
  8
Layer0$C$L0$V_TOP
100
AcDbCircle
 10
-15.06013298034668
 20
10.57662200927734
 30
0.0
 40
0.3100000023841858
  0
CIRCLE
  5
2A2
330
1F
100
AcDbEntity
  8
Layer0$C$L0$V_TOP
100
AcDbCircle
 10
-15.06013298034668
 20
10.57662200927734
 30
0.0
 40
0.135000005364418
  0
ARC
  5
2A3
330
1F
100
AcDbEntity
  8
Layer0$C$L0$V_TOP
100
AcDbCircle
 10
-17.34213829040527
 20
12.85866737365723
 30
0.0
 40
0.2179999947547913
100
AcDbArc
 50
90.00000250447836
 51
180.0000050089567
  0
ARC
  5
2A4
330
1F
100
AcDbEntity
  8
Layer0$C$L0$V_TOP
100
AcDbCircle
 10
-17.34213829040527
 20
10.29466819763184
 30
0.0
 40
0.2179999947547913
100
AcDbArc
 50
180.0000050089567
 51
270.000000683246
  0
ARC
  5
2A5
330
1F
100
AcDbEntity
  8
Layer0$C$L0$V_TOP
100
AcDbCircle
 10
-17.33745193481445
 20
6.17099142074585
 30
0.0
 40
0.2179999947547913
100
AcDbArc
 50
90.00000250447836
 51
180.0000050089567
  0
ARC
  5
2A6
330
1F
100
AcDbEntity
  8
Layer0$C$L0$V_TOP
100
AcDbCircle
 10
-9.778138160705566
 20
12.85866737365723
 30
0.0
 40
0.2179999947547913
100
AcDbArc
 50
0.000000000029312
 51
90.00000250447836
  0
ARC
  5
2A7
330
1F
100
AcDbEntity
  8
Layer0$C$L0$V_TOP
100
AcDbCircle
 10
-9.778138160705566
 20
10.29466819763184
 30
0.0
 40
0.2179999947547913
100
AcDbArc
 50
270.000000683246
 51
0.0000100179134324
  0
LINE
  5
2A8
330
1F
100
AcDbEntity
  8
Layer0$C$L0$V_TOP
100
AcDbLine
 10
-3.416739463806152
 20
5.584033489227295
 30
0.0
 11
-3.602740287780762
 21
5.584033489227295
 31
0.0
  0
LINE
  5
2A9
330
1F
100
AcDbEntity
  8
Layer0$C$L0$V_TOP
100
AcDbLine
 10
-3.416739463806152
 20
5.634032726287842
 30
0.0
 11
-3.416739463806152
 21
5.584033489227295
 31
0.0
  0
LINE
  5
2AA
330
1F
100
AcDbEntity
  8
Layer0$C$L0$V_TOP
100
AcDbLine
 10
-3.602740287780762
 20
5.634032726287842
 30
0.0
 11
-3.602740287780762
 21
5.584033489227295
 31
0.0
  0
LINE
  5
2AB
330
1F
100
AcDbEntity
  8
Layer0$C$L0$V_TOP
100
AcDbLine
 10
-5.41664457321167
 20
5.634032726287842
 30
0.0
 11
-5.41664457321167
 21
5.584033489227295
 31
0.0
  0
LINE
  5
2AC
330
1F
100
AcDbEntity
  8
Layer0$C$L0$V_TOP
100
AcDbLine
 10
-5.602645397186279
 20
5.634032726287842
 30
0.0
 11
-5.602645397186279
 21
5.584033489227295
 31
0.0
  0
LINE
  5
2AD
330
1F
100
AcDbEntity
  8
Layer0$C$L0$V_TOP
100
AcDbLine
 10
-5.602645397186279
 20
5.584033489227295
 30
0.0
 11
-5.41664457321167
 21
5.584033489227295
 31
0.0
  0
LINE
  5
2AE
330
1F
100
AcDbEntity
  8
Layer0$C$L0$V_TOP
100
AcDbLine
 10
-5.655426502227783
 20
6.534032344818115
 30
0.0
 11
-3.363958358764648
 21
6.534032344818115
 31
0.0
  0
LINE
  5
2AF
330
1F
100
AcDbEntity
  8
Layer0$C$L0$V_TOP
100
AcDbLine
 10
-6.009693145751953
 20
5.634032726287842
 30
0.0
 11
-3.009692192077637
 21
5.634032726287842
 31
0.0
  0
LINE
  5
2B0
330
1F
100
AcDbEntity
  8
Layer0$C$L0$V_TOP
100
AcDbLine
 10
-11.8331413269043
 20
5.577032566070557
 30
0.0
 11
-12.3271427154541
 21
5.577032566070557
 31
0.0
  0
LINE
  5
2B1
330
1F
100
AcDbEntity
  8
Layer0$C$L0$V_TOP
100
AcDbLine
 10
-11.8331413269043
 20
5.634032726287842
 30
0.0
 11
-11.8331413269043
 21
5.577032566070557
 31
0.0
  0
LINE
  5
2B2
330
1F
100
AcDbEntity
  8
Layer0$C$L0$V_TOP
100
AcDbLine
 10
-12.3271427154541
 20
5.634032726287842
 30
0.0
 11
-12.3271427154541
 21
5.577032566070557
 31
0.0
  0
LINE
  5
2B3
330
1F
100
AcDbEntity
  8
Layer0$C$L0$V_TOP
100
AcDbLine
 10
-9.778637886047363
 20
5.577032566070557
 30
0.0
 11
-9.59163761138916
 21
5.577032566070557
 31
0.0
  0
LINE
  5
2B4
330
1F
100
AcDbEntity
  8
Layer0$C$L0$V_TOP
100
AcDbLine
 10
-9.59163761138916
 20
5.634032726287842
 30
0.0
 11
-9.59163761138916
 21
5.577032566070557
 31
0.0
  0
LINE
  5
2B5
330
1F
100
AcDbEntity
  8
Layer0$C$L0$V_TOP
100
AcDbLine
 10
-9.778637886047363
 20
5.634032726287842
 30
0.0
 11
-9.778637886047363
 21
5.577032566070557
 31
0.0
  0
LINE
  5
2B6
330
1F
100
AcDbEntity
  8
Layer0$C$L0$V_TOP
100
AcDbLine
 10
-17.34163856506348
 20
5.634032726287842
 30
0.0
 11
-17.34163856506348
 21
5.577032566070557
 31
0.0
  0
LINE
  5
2B7
330
1F
100
AcDbEntity
  8
Layer0$C$L0$V_TOP
100
AcDbLine
 10
-17.52863883972168
 20
5.634032726287842
 30
0.0
 11
-17.52863883972168
 21
5.577032566070557
 31
0.0
  0
LINE
  5
2B8
330
1F
100
AcDbEntity
  8
Layer0$C$L0$V_TOP
100
AcDbLine
 10
-17.34163856506348
 20
5.577032566070557
 30
0.0
 11
-17.52863883972168
 21
5.577032566070557
 31
0.0
  0
LINE
  5
2B9
330
1F
100
AcDbEntity
  8
Layer0$C$L0$V_TOP
100
AcDbLine
 10
-14.79313373565674
 20
5.634032726287842
 30
0.0
 11
-14.79313373565674
 21
5.577032566070557
 31
0.0
  0
LINE
  5
2BA
330
1F
100
AcDbEntity
  8
Layer0$C$L0$V_TOP
100
AcDbLine
 10
-15.28713417053223
 20
5.634032726287842
 30
0.0
 11
-15.28713417053223
 21
5.577032566070557
 31
0.0
  0
LINE
  5
2BB
330
1F
100
AcDbEntity
  8
Layer0$C$L0$V_TOP
100
AcDbLine
 10
-15.28713417053223
 20
5.577032566070557
 30
0.0
 11
-14.79313373565674
 21
5.577032566070557
 31
0.0
  0
LINE
  5
2BC
330
1F
100
AcDbEntity
  8
Layer0$C$L0$V_TOP
100
AcDbLine
 10
-9.801403045654297
 20
6.534032344818115
 30
0.0
 11
-10.05187225341797
 21
6.534032344818115
 31
0.0
  0
LINE
  5
2BD
330
1F
100
AcDbEntity
  8
Layer0$C$L0$V_TOP
100
AcDbLine
 10
-15.79187297821045
 20
6.534032344818115
 30
0.0
 11
-15.54140377044678
 21
6.534032344818115
 31
0.0
  0
LINE
  5
2BE
330
1F
100
AcDbEntity
  8
Layer0$C$L0$V_TOP
100
AcDbLine
 10
-17.31887245178223
 20
6.534032344818115
 30
0.0
 11
-17.06840324401855
 21
6.534032344818115
 31
0.0
  0
LINE
  5
2BF
330
1F
100
AcDbEntity
  8
Layer0$C$L0$V_TOP
100
AcDbLine
 10
-17.56013870239258
 20
5.634032726287842
 30
0.0
 11
-9.560137748718262
 21
5.634032726287842
 31
0.0
  0
ARC
  5
2C0
330
1F
100
AcDbEntity
  8
Layer0$C$L0$V_TOP
100
AcDbCircle
 10
-14.18013763427734
 20
10.95666694641113
 30
0.0
 40
0.125
100
AcDbArc
 50
180.0000050089567
 51
270.000000683246
  0
ARC
  5
2C1
330
1F
100
AcDbEntity
  8
Layer0$C$L0$V_TOP
100
AcDbCircle
 10
-12.94013786315918
 20
10.95666694641113
 30
0.0
 40
0.125
100
AcDbArc
 50
270.000000683246
 51
0.0000100179134324
  0
ARC
  5
2C2
330
1F
100
AcDbEntity
  8
Layer0$C$L0$V_TOP
100
AcDbCircle
 10
-12.94013786315918
 20
12.19666862487793
 30
0.0
 40
0.125
100
AcDbArc
 50
0.0000000000521102
 51
90.00000250447836
  0
ARC
  5
2C3
330
1F
100
AcDbEntity
  8
Layer0$C$L0$V_TOP
100
AcDbCircle
 10
-14.18013763427734
 20
12.19666862487793
 30
0.0
 40
0.125
100
AcDbArc
 50
90.00000250447836
 51
180.0000050089567
  0
LINE
  5
2C4
330
1F
100
AcDbEntity
  8
Layer0$C$L0$V_TOP
100
AcDbLine
 10
-12.81513786315918
 20
12.19666862487793
 30
0.0
 11
-12.81513786315918
 21
10.95666694641113
 31
0.0
  0
LINE
  5
2C5
330
1F
100
AcDbEntity
  8
Layer0$C$L0$V_TOP
100
AcDbLine
 10
-14.30513763427734
 20
12.19666862487793
 30
0.0
 11
-14.30513763427734
 21
10.95666694641113
 31
0.0
  0
LINE
  5
2C6
330
1F
100
AcDbEntity
  8
Layer0$C$L0$V_TOP
100
AcDbLine
 10
-14.18013763427734
 20
10.83166694641113
 30
0.0
 11
-12.94013786315918
 21
10.83166694641113
 31
0.0
  0
LINE
  5
2C7
330
1F
100
AcDbEntity
  8
Layer0$C$L0$V_TOP
100
AcDbLine
 10
-12.94013786315918
 20
12.32166862487793
 30
0.0
 11
-14.18013763427734
 21
12.32166862487793
 31
0.0
  0
LINE
  5
2C8
330
1F
100
AcDbEntity
  8
Layer0$C$L0$V_TOP
100
AcDbLine
 10
-9.801637649536133
 20
12.6336669921875
 30
0.0
 11
-9.801637649536133
 21
10.51966857910156
 31
0.0
  0
LINE
  5
2C9
330
1F
100
AcDbEntity
  8
Layer0$C$L0$V_TOP
100
AcDbLine
 10
-10.05163764953613
 20
12.6336669921875
 30
0.0
 11
-10.05163764953613
 21
10.51966857910156
 31
0.0
  0
LINE
  5
2CA
330
1F
100
AcDbEntity
  8
Layer0$C$L0$V_TOP
100
AcDbLine
 10
-11.57863712310791
 20
12.6336669921875
 30
0.0
 11
-11.57863712310791
 21
10.51966857910156
 31
0.0
  0
LINE
  5
2CB
330
1F
100
AcDbEntity
  8
Layer0$C$L0$V_TOP
100
AcDbLine
 10
-11.32863712310791
 20
12.6336669921875
 30
0.0
 11
-11.32863712310791
 21
10.51966857910156
 31
0.0
  0
LINE
  5
2CC
330
1F
100
AcDbEntity
  8
Layer0$C$L0$V_TOP
100
AcDbLine
 10
-11.4186372756958
 20
12.72366714477539
 30
0.0
 11
-11.48863697052002
 21
12.72366714477539
 31
0.0
  0
LINE
  5
2CD
330
1F
100
AcDbEntity
  8
Layer0$C$L0$V_TOP
100
AcDbLine
 10
-11.4186372756958
 20
10.42966842651367
 30
0.0
 11
-11.48863697052002
 21
10.42966842651367
 31
0.0
  0
LINE
  5
2CE
330
1F
100
AcDbEntity
  8
Layer0$C$L0$V_TOP
100
AcDbLine
 10
-9.961637496948242
 20
12.72366714477539
 30
0.0
 11
-9.891637802124023
 21
12.72366714477539
 31
0.0
  0
LINE
  5
2CF
330
1F
100
AcDbEntity
  8
Layer0$C$L0$V_TOP
100
AcDbLine
 10
-9.961637496948242
 20
10.42966842651367
 30
0.0
 11
-9.891637802124023
 21
10.42966842651367
 31
0.0
  0
LINE
  5
2D0
330
1F
100
AcDbEntity
  8
Layer0$C$L0$V_TOP
100
AcDbLine
 10
-17.15863800048828
 20
10.42966842651367
 30
0.0
 11
-17.2286376953125
 21
10.42966842651367
 31
0.0
  0
LINE
  5
2D1
330
1F
100
AcDbEntity
  8
Layer0$C$L0$V_TOP
100
AcDbLine
 10
-17.15863800048828
 20
12.72366714477539
 30
0.0
 11
-17.2286376953125
 21
12.72366714477539
 31
0.0
  0
LINE
  5
2D2
330
1F
100
AcDbEntity
  8
Layer0$C$L0$V_TOP
100
AcDbLine
 10
-15.70163822174072
 20
10.42966842651367
 30
0.0
 11
-15.6316385269165
 21
10.42966842651367
 31
0.0
  0
LINE
  5
2D3
330
1F
100
AcDbEntity
  8
Layer0$C$L0$V_TOP
100
AcDbLine
 10
-15.70163822174072
 20
12.72366714477539
 30
0.0
 11
-15.6316385269165
 21
12.72366714477539
 31
0.0
  0
LINE
  5
2D4
330
1F
100
AcDbEntity
  8
Layer0$C$L0$V_TOP
100
AcDbLine
 10
-15.79163837432861
 20
12.6336669921875
 30
0.0
 11
-15.79163837432861
 21
10.51966857910156
 31
0.0
  0
LINE
  5
2D5
330
1F
100
AcDbEntity
  8
Layer0$C$L0$V_TOP
100
AcDbLine
 10
-15.54163837432861
 20
12.6336669921875
 30
0.0
 11
-15.54163837432861
 21
10.51966857910156
 31
0.0
  0
LINE
  5
2D6
330
1F
100
AcDbEntity
  8
Layer0$C$L0$V_TOP
100
AcDbLine
 10
-17.06863784790039
 20
12.6336669921875
 30
0.0
 11
-17.06863784790039
 21
10.51966857910156
 31
0.0
  0
LINE
  5
2D7
330
1F
100
AcDbEntity
  8
Layer0$C$L0$V_TOP
100
AcDbLine
 10
-17.31863784790039
 20
12.6336669921875
 30
0.0
 11
-17.31863784790039
 21
10.51966857910156
 31
0.0
  0
CIRCLE
  5
2D8
330
1F
100
AcDbEntity
  8
Layer0$C$L0$V_TOP
100
AcDbCircle
 10
-10.70013809204102
 20
12.07666778564453
 30
0.0
 40
0.1580000072717667
  0
LINE
  5
2D9
330
1F
100
AcDbEntity
  8
Layer0$C$L0$V_TOP
100
AcDbLine
 10
-9.778138160705566
 20
10.07666778564453
 30
0.0
 11
-17.34213829040527
 21
10.07666778564453
 31
0.0
  0
LINE
  5
2DA
330
1F
100
AcDbEntity
  8
Layer0$C$L0$V_TOP
100
AcDbLine
 10
-9.560137748718262
 20
12.85866737365723
 30
0.0
 11
-9.560137748718262
 21
10.29466819763184
 31
0.0
  0
LINE
  5
2DB
330
1F
100
AcDbEntity
  8
Layer0$C$L0$V_TOP
100
AcDbLine
 10
-17.56013870239258
 20
12.85866737365723
 30
0.0
 11
-17.56013870239258
 21
10.29466819763184
 31
0.0
  0
LINE
  5
2DC
330
1F
100
AcDbEntity
  8
Layer0$C$L0$V_TOP
100
AcDbLine
 10
-17.34213829040527
 20
13.07666778564453
 30
0.0
 11
-9.778138160705566
 21
13.07666778564453
 31
0.0
  0
VIEWPORT
  5
3F
330
1B
100
AcDbEntity
 67
     1
  8
0
100
AcDbViewport
 10
5.25
 20
4.0
 30
0.0
 40
11.638
 41
8.993
 68
     1
 69
     1
 12
5.25
 22
4.0
 13
0.0
 23
0.0
 14
0.5
 24
0.5
 15
0.5
 25
0.5
 16
0.0
 26
0.0
 36
1.0
 17
0.0
 27
0.0
 37
0.0
 42
50.0
 43
0.0
 44
0.0
 45
8.993
 50
0.0
 51
0.0
 72
   100
 90
   557152
  1

281
     0
 71
     1
 74
     0
110
0.0
120
0.0
130
0.0
111
1.0
121
0.0
131
0.0
112
0.0
122
1.0
132
0.0
 79
     0
146
0.0
170
     0
 61
     5
292
     1
282
     1
141
0.0
142
0.0
 63
   256
  0
INSERT
  5
1DC
330
1B
100
AcDbEntity
 67
     1
  8
Layer0$C$L0$V_TOP
100
AcDbBlockReference
  2
SIDNUT_312
 10
-3.991893345184327
 20
6.75057
 30
0.0
 42
-1.0
 50
90.0000000000002
  0
INSERT
  5
1F2
330
1B
100
AcDbEntity
 67
     1
  8
Layer0$C$L0$V_TOP
100
AcDbBlockReference
  2
TOPSET_75
 10
-10.70013338926077
 20
10.8866625604248
 30
0.0
 42
-1.0
 50
90.0000000000002
  0
INSERT
  5
252
330
1B
100
AcDbEntity
 67
     1
  8
Layer0$C$L0$V_TOP
100
AcDbBlockReference
  2
TOPSET_75
 10
-16.42014306185007
 20
10.8866625604248
 30
0.0
 50
90.0000000000002
  0
VIEWPORT
  5
2DD
330
1B
100
AcDbEntity
 67
     1
  8
VIEWPORTS
  6
SOLID
100
AcDbViewport
 10
-6.961204446852207
 20
5.518301010131836
 30
0.0
 40
15.30111329257488
 41
11.28660202026367
 68
     2
 69
     2
 12
-9.281605929136276
 22
7.357734680175781
 13
0.0
 23
0.0
 14
1.0
 24
1.0
 15
0.0
 25
0.0
 16
0.0
 26
0.0
 36
1.0
 17
0.0
 27
0.0
 37
0.0
 42
0.0
 43
0.0
 44
0.0
 45
15.0488026936849
 50
0.0
 51
0.0
 72
   100
331
69
 90
   557216
  1
 
281
     0
 71
     1
 74
     0
110
0.0
120
0.0
130
0.0
111
1.0
121
0.0
131
0.0
112
0.0
122
1.0
132
0.0
 79
     0
146
0.0
170
     0
 61
     5
292
     1
282
     1
141
0.0
142
0.0
 63
   256
  0
ENDSEC
  0
SECTION
  2
OBJECTS
  0
DICTIONARY
  5
C
330
0
100
AcDbDictionary
281
     1
  3
ACAD_GROUP
350
D
  3
ACAD_LAYOUT
350
1A
  3
ACAD_MATERIAL
350
3B
  3
ACAD_MLEADERSTYLE
350
301
  3
ACAD_MLINESTYLE
350
17
  3
ACAD_PLOTSETTINGS
350
19
  3
ACAD_PLOTSTYLENAME
350
E
  3
ACAD_SCALELIST
350
7A
  3
ACAD_TABLESTYLE
350
300
  3
ACAD_VISUALSTYLE
350
2A
  3
AcDbVariableDictionary
350
2DE
  0
DICTIONARY
  5
D
102
{ACAD_REACTORS
330
C
102
}
330
C
100
AcDbDictionary
281
     1
  0
DICTIONARY
  5
1A
102
{ACAD_REACTORS
330
C
102
}
330
C
100
AcDbDictionary
281
     1
  3
Layout1
350
1E
  3
Layout2
350
26
  3
Model
350
22
  0
DICTIONARY
  5
3B
102
{ACAD_REACTORS
330
C
102
}
330
C
100
AcDbDictionary
281
     1
  3
ByBlock
350
3D
  3
ByLayer
350
3C
  3
Global
350
3E
  0
DICTIONARY
  5
301
102
{ACAD_REACTORS
330
C
102
}
330
C
100
AcDbDictionary
281
     1
  0
DICTIONARY
  5
17
102
{ACAD_REACTORS
330
C
102
}
330
C
100
AcDbDictionary
281
     1
  3
Standard
350
18
  0
DICTIONARY
  5
19
102
{ACAD_REACTORS
330
C
102
}
330
C
100
AcDbDictionary
281
     1
  0
ACDBDICTIONARYWDFLT
  5
E
102
{ACAD_REACTORS
330
C
102
}
330
C
100
AcDbDictionary
281
     1
  3
Normal
350
F
100
AcDbDictionaryWithDefault
340
F
  0
DICTIONARY
  5
7A
102
{ACAD_REACTORS
330
C
102
}
330
C
100
AcDbDictionary
281
     1
  3
A0
350
7B
  3
A1
350
7C
  3
A2
350
7D
  3
A3
350
7E
  3
A4
350
7F
  3
A5
350
80
  3
A6
350
81
  3
A7
350
82
  3
A8
350
83
  3
A9
350
84
  3
B0
350
85
  3
B1
350
86
  3
B2
350
87
  3
B3
350
88
  3
B4
350
89
  3
B5
350
8A
  3
B6
350
8B
  3
B7
350
8C
  3
B8
350
8D
  3
B9
350
8E
  3
C0
350
8F
  3
C1
350
90
  3
C2
350
91
  3
C3
350
92
  3
C4
350
93
  3
C5
350
94
  3
C6
350
95
  3
C7
350
96
  3
C8
350
97
  3
C9
350
98
  3
D0
350
99
  3
D1
350
9A
  3
D2
350
9B
  0
DICTIONARY
  5
300
102
{ACAD_REACTORS
330
C
102
}
330
C
100
AcDbDictionary
281
     1
  0
DICTIONARY
  5
2A
102
{ACAD_REACTORS
330
C
102
}
330
C
100
AcDbDictionary
281
     1
  3
2dWireframe
350
2F
  3
3D Hidden
350
31
  3
3dWireframe
350
30
  3
Basic
350
32
  3
Brighten
350
36
  3
ColorChange
350
3A
  3
Conceptual
350
34
  3
Dim
350
35
  3
Facepattern
350
39
  3
Flat
350
2B
  3
FlatWithEdges
350
2C
  3
Gouraud
350
2D
  3
GouraudWithEdges
350
2E
  3
Linepattern
350
38
  3
Realistic
350
33
  3
Thicken
350
37
  0
DICTIONARY
  5
2DE
102
{ACAD_REACTORS
330
C
102
}
330
C
100
AcDbDictionary
281
     1
  3
CANNOSCALE
350
2DF
  0
LAYOUT
  5
1E
102
{ACAD_REACTORS
330
1A
102
}
330
1A
100
AcDbPlotSettings
  1

  2
none_device
  4
Letter_(8.50_x_11.00_Inches)
  6

 40
6.35
 41
6.35
 42
6.35001
 43
6.35001
 44
215.9
 45
279.4
 46
0.0
 47
0.0
 48
0.0
 49
0.0
140
0.0
141
0.0
142
1.0
143
1.0
 70
   688
 72
     0
 73
     1
 74
     5
  7

 75
    16
 76
     0
 77
     2
 78
   300
147
1.0
148
0.0
149
0.0
100
AcDbLayout
  1
Layout1
 70
     1
 71
     1
 10
-0.25
 20
-0.25
 11
10.75
 21
8.25
 12
0.0
 22
0.0
 32
0.0
 14
1.000000000000000E+20
 24
1.000000000000000E+20
 34
1.000000000000000E+20
 15
-1.000000000000000E+20
 25
-1.000000000000000E+20
 35
-1.000000000000000E+20
146
0.0
 13
0.0
 23
0.0
 33
0.0
 16
1.0
 26
0.0
 36
0.0
 17
0.0
 27
1.0
 37
0.0
 76
     0
330
1B
331
3F
  0
LAYOUT
  5
26
102
{ACAD_REACTORS
330
1A
102
}
330
1A
100
AcDbPlotSettings
  1

  2
none_device
  4

  6

 40
0.0
 41
0.0
 42
0.0
 43
0.0
 44
0.0
 45
0.0
 46
0.0
 47
0.0
 48
0.0
 49
0.0
140
0.0
141
0.0
142
1.0
143
1.0
 70
   688
 72
     0
 73
     0
 74
     5
  7

 75
    16
 76
     0
 77
     2
 78
   300
147
1.0
148
0.0
149
0.0
100
AcDbLayout
  1
Layout2
 70
     1
 71
     2
 10
0.0
 20
0.0
 11
0.0
 21
0.0
 12
0.0
 22
0.0
 32
0.0
 14
0.0
 24
0.0
 34
0.0
 15
0.0
 25
0.0
 35
0.0
146
0.0
 13
0.0
 23
0.0
 33
0.0
 16
1.0
 26
0.0
 36
0.0
 17
0.0
 27
1.0
 37
0.0
 76
     0
330
23
  0
LAYOUT
  5
22
102
{ACAD_REACTORS
330
1A
102
}
330
1A
100
AcDbPlotSettings
  1

  2
none_device
  4

  6

 40
0.0
 41
0.0
 42
0.0
 43
0.0
 44
0.0
 45
0.0
 46
0.0
 47
0.0
 48
0.0
 49
0.0
140
0.0
141
0.0
142
1.0
143
1.0
 70
  1712
 72
     0
 73
     0
 74
     0
  7

 75
     0
 76
     0
 77
     2
 78
   300
147
1.0
148
0.0
149
0.0
100
AcDbLayout
  1
Model
 70
     1
 71
     0
 10
0.0
 20
0.0
 11
12.0
 21
9.0
 12
0.0
 22
0.0
 32
0.0
 14
-14.61176109313965
 24
-0.125
 34
0.0
 15
0.6893521994352341
 25
11.16160202026367
 35
0.0
146
0.0
 13
0.0
 23
0.0
 33
0.0
 16
1.0
 26
0.0
 36
0.0
 17
0.0
 27
1.0
 37
0.0
 76
     0
330
1F
331
29
  0
MATERIAL
  5
3D
102
{ACAD_REACTORS
330
3B
102
}
330
3B
100
AcDbMaterial
  1
ByBlock
 72
     1
 94
      127
  0
MATERIAL
  5
3C
102
{ACAD_REACTORS
330
3B
102
}
330
3B
100
AcDbMaterial
  1
ByLayer
 72
     1
 94
      127
  0
MATERIAL
  5
3E
102
{ACAD_REACTORS
330
3B
102
}
330
3B
100
AcDbMaterial
  1
Global
 72
     1
 94
      127
  0
MLINESTYLE
  5
18
102
{ACAD_REACTORS
330
17
102
}
330
17
100
AcDbMlineStyle
  2
Standard
 70
     0
  3

 62
   256
 51
90.0
 52
90.0
 71
     2
 49
0.5
 62
   256
  6
BYLAYER
 49
-0.5
 62
   256
  6
BYLAYER
  0
ACDBPLACEHOLDER
  5
F
102
{ACAD_REACTORS
330
E
102
}
330
E
  0
SCALE
  5
7B
102
{ACAD_REACTORS
330
7A
102
}
330
7A
100
AcDbScale
 70
     0
300
1:1
140
1.0
141
1.0
290
     1
  0
SCALE
  5
7C
102
{ACAD_REACTORS
330
7A
102
}
330
7A
100
AcDbScale
 70
     0
300
1:2
140
1.0
141
2.0
290
     0
  0
SCALE
  5
7D
102
{ACAD_REACTORS
330
7A
102
}
330
7A
100
AcDbScale
 70
     0
300
1:4
140
1.0
141
4.0
290
     0
  0
SCALE
  5
7E
102
{ACAD_REACTORS
330
7A
102
}
330
7A
100
AcDbScale
 70
     0
300
1:5
140
1.0
141
5.0
290
     0
  0
SCALE
  5
7F
102
{ACAD_REACTORS
330
7A
102
}
330
7A
100
AcDbScale
 70
     0
300
1:8
140
1.0
141
8.0
290
     0
  0
SCALE
  5
80
102
{ACAD_REACTORS
330
7A
102
}
330
7A
100
AcDbScale
 70
     0
300
1:10
140
1.0
141
10.0
290
     0
  0
SCALE
  5
81
102
{ACAD_REACTORS
330
7A
102
}
330
7A
100
AcDbScale
 70
     0
300
1:16
140
1.0
141
16.0
290
     0
  0
SCALE
  5
82
102
{ACAD_REACTORS
330
7A
102
}
330
7A
100
AcDbScale
 70
     0
300
1:20
140
1.0
141
20.0
290
     0
  0
SCALE
  5
83
102
{ACAD_REACTORS
330
7A
102
}
330
7A
100
AcDbScale
 70
     0
300
1:30
140
1.0
141
30.0
290
     0
  0
SCALE
  5
84
102
{ACAD_REACTORS
330
7A
102
}
330
7A
100
AcDbScale
 70
     0
300
1:40
140
1.0
141
40.0
290
     0
  0
SCALE
  5
85
102
{ACAD_REACTORS
330
7A
102
}
330
7A
100
AcDbScale
 70
     0
300
1:50
140
1.0
141
50.0
290
     0
  0
SCALE
  5
86
102
{ACAD_REACTORS
330
7A
102
}
330
7A
100
AcDbScale
 70
     0
300
1:100
140
1.0
141
100.0
290
     0
  0
SCALE
  5
87
102
{ACAD_REACTORS
330
7A
102
}
330
7A
100
AcDbScale
 70
     0
300
2:1
140
2.0
141
1.0
290
     0
  0
SCALE
  5
88
102
{ACAD_REACTORS
330
7A
102
}
330
7A
100
AcDbScale
 70
     0
300
4:1
140
4.0
141
1.0
290
     0
  0
SCALE
  5
89
102
{ACAD_REACTORS
330
7A
102
}
330
7A
100
AcDbScale
 70
     0
300
8:1
140
8.0
141
1.0
290
     0
  0
SCALE
  5
8A
102
{ACAD_REACTORS
330
7A
102
}
330
7A
100
AcDbScale
 70
     0
300
10:1
140
10.0
141
1.0
290
     0
  0
SCALE
  5
8B
102
{ACAD_REACTORS
330
7A
102
}
330
7A
100
AcDbScale
 70
     0
300
100:1
140
100.0
141
1.0
290
     0
  0
SCALE
  5
8C
102
{ACAD_REACTORS
330
7A
102
}
330
7A
100
AcDbScale
 70
     0
300
1/128" = 1'-0"
140
0.0078125
141
12.0
290
     0
  0
SCALE
  5
8D
102
{ACAD_REACTORS
330
7A
102
}
330
7A
100
AcDbScale
 70
     0
300
1/64" = 1'-0"
140
0.015625
141
12.0
290
     0
  0
SCALE
  5
8E
102
{ACAD_REACTORS
330
7A
102
}
330
7A
100
AcDbScale
 70
     0
300
1/32" = 1'-0"
140
0.03125
141
12.0
290
     0
  0
SCALE
  5
8F
102
{ACAD_REACTORS
330
7A
102
}
330
7A
100
AcDbScale
 70
     0
300
1/16" = 1'-0"
140
0.0625
141
12.0
290
     0
  0
SCALE
  5
90
102
{ACAD_REACTORS
330
7A
102
}
330
7A
100
AcDbScale
 70
     0
300
3/32" = 1'-0"
140
0.09375
141
12.0
290
     0
  0
SCALE
  5
91
102
{ACAD_REACTORS
330
7A
102
}
330
7A
100
AcDbScale
 70
     0
300
1/8" = 1'-0"
140
0.125
141
12.0
290
     0
  0
SCALE
  5
92
102
{ACAD_REACTORS
330
7A
102
}
330
7A
100
AcDbScale
 70
     0
300
3/16" = 1'-0"
140
0.1875
141
12.0
290
     0
  0
SCALE
  5
93
102
{ACAD_REACTORS
330
7A
102
}
330
7A
100
AcDbScale
 70
     0
300
1/4" = 1'-0"
140
0.25
141
12.0
290
     0
  0
SCALE
  5
94
102
{ACAD_REACTORS
330
7A
102
}
330
7A
100
AcDbScale
 70
     0
300
3/8" = 1'-0"
140
0.375
141
12.0
290
     0
  0
SCALE
  5
95
102
{ACAD_REACTORS
330
7A
102
}
330
7A
100
AcDbScale
 70
     0
300
1/2" = 1'-0"
140
0.5
141
12.0
290
     0
  0
SCALE
  5
96
102
{ACAD_REACTORS
330
7A
102
}
330
7A
100
AcDbScale
 70
     0
300
3/4" = 1'-0"
140
0.75
141
12.0
290
     0
  0
SCALE
  5
97
102
{ACAD_REACTORS
330
7A
102
}
330
7A
100
AcDbScale
 70
     0
300
1" = 1'-0"
140
1.0
141
12.0
290
     0
  0
SCALE
  5
98
102
{ACAD_REACTORS
330
7A
102
}
330
7A
100
AcDbScale
 70
     0
300
1-1/2" = 1'-0"
140
1.5
141
12.0
290
     0
  0
SCALE
  5
99
102
{ACAD_REACTORS
330
7A
102
}
330
7A
100
AcDbScale
 70
     0
300
3" = 1'-0"
140
3.0
141
12.0
290
     0
  0
SCALE
  5
9A
102
{ACAD_REACTORS
330
7A
102
}
330
7A
100
AcDbScale
 70
     0
300
6" = 1'-0"
140
6.0
141
12.0
290
     0
  0
SCALE
  5
9B
102
{ACAD_REACTORS
330
7A
102
}
330
7A
100
AcDbScale
 70
     0
300
1'-0" = 1'-0"
140
12.0
141
12.0
290
     0
  0
VISUALSTYLE
  5
2F
102
{ACAD_REACTORS
330
2A
102
}
102
{ACAD_XDICTIONARY
360
2E8
102
}
330
2A
100
AcDbVisualStyle
  2
2dWireframe
 70
     4
 71
     0
 72
     2
 73
     0
 90
        0
 40
-0.6
 41
-30.0
 62
     5
 63
     7
421
 16777215
 74
     1
 91
        4
 64
     7
 65
   257
 75
     1
175
     1
 42
1.0
 92
        0
 66
   257
 43
1.0
 76
     1
 77
     6
 78
     2
 67
     7
 79
     5
170
     0
171
     0
290
     0
174
     0
 93
        1
 44
0.0
173
     0
291
     0
 45
0.0
  0
VISUALSTYLE
  5
31
102
{ACAD_REACTORS
330
2A
102
}
102
{ACAD_XDICTIONARY
360
2EC
102
}
330
2A
100
AcDbVisualStyle
  2
3D Hidden
 70
     6
 71
     1
 72
     2
 73
     2
 90
        0
 40
-0.6
 41
-30.0
 62
     5
 63
     7
421
 16777215
 74
     2
 91
        2
 64
     7
 65
   257
 75
     2
175
     1
 42
40.0
 92
        0
 66
   257
 43
1.0
 76
     1
 77
     6
 78
     2
 67
     7
 79
     3
170
     0
171
     0
290
     0
174
     0
 93
        1
 44
0.0
173
     0
291
     0
 45
0.0
  0
VISUALSTYLE
  5
30
102
{ACAD_REACTORS
330
2A
102
}
102
{ACAD_XDICTIONARY
360
2EA
102
}
330
2A
100
AcDbVisualStyle
  2
3dWireframe
 70
     5
 71
     0
 72
     2
 73
     0
 90
        0
 40
-0.6
 41
-30.0
 62
     5
 63
     7
421
 16777215
 74
     1
 91
        4
 64
     7
 65
   257
 75
     1
175
     1
 42
1.0
 92
        0
 66
   257
 43
1.0
 76
     1
 77
     6
 78
     2
 67
     7
 79
     5
170
     0
171
     0
290
     0
174
     0
 93
        1
 44
0.0
173
     0
291
     0
 45
0.0
  0
VISUALSTYLE
  5
32
102
{ACAD_REACTORS
330
2A
102
}
102
{ACAD_XDICTIONARY
360
2EE
102
}
330
2A
100
AcDbVisualStyle
  2
Basic
 70
     7
 71
     1
 72
     0
 73
     1
 90
        0
 40
-0.6
 41
-30.0
 62
     5
 63
     7
421
 16777215
 74
     0
 91
        4
 64
     7
 65
   257
 75
     1
175
     1
 42
1.0
 92
        8
 66
     7
 43
1.0
 76
     1
 77
     6
 78
     2
 67
     7
 79
     5
170
     0
171
     0
290
     0
174
     0
 93
        1
 44
0.0
173
     0
291
     1
 45
0.0
  0
VISUALSTYLE
  5
36
102
{ACAD_REACTORS
330
2A
102
}
102
{ACAD_XDICTIONARY
360
2F6
102
}
330
2A
100
AcDbVisualStyle
  2
Brighten
 70
    12
 71
     2
 72
     2
 73
     0
 90
        0
 40
-0.6
 41
-30.0
 62
     5
 63
     7
421
 16777215
 74
     1
 91
        4
 64
     7
 65
   257
 75
     1
175
     1
 42
1.0
 92
        8
 66
     7
 43
1.0
 76
     1
 77
     6
 78
     2
 67
     7
 79
     5
170
     0
171
     0
290
     0
174
     0
 93
        1
 44
50.0
173
     0
291
     1
 45
0.0
  0
VISUALSTYLE
  5
3A
102
{ACAD_REACTORS
330
2A
102
}
102
{ACAD_XDICTIONARY
360
2FE
102
}
330
2A
100
AcDbVisualStyle
  2
ColorChange
 70
    16
 71
     2
 72
     2
 73
     3
 90
        0
 40
-0.6
 41
-30.0
 62
     5
 63
     8
421
  8421504
 74
     1
 91
        4
 64
     7
 65
   257
 75
     1
175
     1
 42
1.0
 92
        8
 66
     8
424
  8421504
 43
1.0
 76
     1
 77
     6
 78
     2
 67
     7
 79
     5
170
     0
171
     0
290
     0
174
     0
 93
        1
 44
0.0
173
     0
291
     1
 45
0.0
  0
VISUALSTYLE
  5
34
102
{ACAD_REACTORS
330
2A
102
}
102
{ACAD_XDICTIONARY
360
2F2
102
}
330
2A
100
AcDbVisualStyle
  2
Conceptual
 70
     9
 71
     3
 72
     2
 73
     0
 90
        0
 40
-0.6
 41
-30.0
 62
     5
 63
     7
421
 16777215
 74
     2
 91
        2
 64
     7
 65
   257
 75
     1
175
     1
 42
40.0
 92
        8
 66
     7
 43
1.0
 76
     1
 77
     6
 78
     2
 67
     7
 79
     3
170
     0
171
     0
290
     0
174
     0
 93
        1
 44
0.0
173
     0
291
     0
 45
0.0
  0
VISUALSTYLE
  5
35
102
{ACAD_REACTORS
330
2A
102
}
102
{ACAD_XDICTIONARY
360
2F4
102
}
330
2A
100
AcDbVisualStyle
  2
Dim
 70
    11
 71
     2
 72
     2
 73
     0
 90
        0
 40
-0.6
 41
-30.0
 62
     5
 63
     7
421
 16777215
 74
     1
 91
        4
 64
     7
 65
   257
 75
     1
175
     1
 42
1.0
 92
        8
 66
     7
 43
1.0
 76
     1
 77
     6
 78
     2
 67
     7
 79
     5
170
     0
171
     0
290
     0
174
     0
 93
        1
 44
-50.0
173
     0
291
     1
 45
0.0
  0
VISUALSTYLE
  5
39
102
{ACAD_REACTORS
330
2A
102
}
102
{ACAD_XDICTIONARY
360
2FC
102
}
330
2A
100
AcDbVisualStyle
  2
Facepattern
 70
    15
 71
     2
 72
     2
 73
     0
 90
        0
 40
-0.6
 41
-30.0
 62
     5
 63
     7
421
 16777215
 74
     1
 91
        4
 64
     7
 65
   257
 75
     1
175
     1
 42
1.0
 92
        8
 66
     7
 43
1.0
 76
     1
 77
     6
 78
     2
 67
     7
 79
     5
170
     0
171
     0
290
     0
174
     0
 93
        1
 44
0.0
173
     0
291
     1
 45
0.0
  0
VISUALSTYLE
  5
2B
102
{ACAD_REACTORS
330
2A
102
}
102
{ACAD_XDICTIONARY
360
2E0
102
}
330
2A
100
AcDbVisualStyle
  2
Flat
 70
     0
 71
     2
 72
     1
 73
     1
 90
        2
 40
-0.6
 41
30.0
 62
     5
 63
     7
421
 16777215
 74
     0
 91
        4
 64
     7
 65
   257
 75
     1
175
     1
 42
1.0
 92
        8
 66
     7
 43
1.0
 76
     1
 77
     6
 78
     2
 67
     7
 79
     5
170
     0
171
     0
290
     0
174
     0
 93
       13
 44
0.0
173
     0
291
     1
 45
0.0
  0
VISUALSTYLE
  5
2C
102
{ACAD_REACTORS
330
2A
102
}
102
{ACAD_XDICTIONARY
360
2E2
102
}
330
2A
100
AcDbVisualStyle
  2
FlatWithEdges
 70
     1
 71
     2
 72
     1
 73
     1
 90
        2
 40
-0.6
 41
30.0
 62
     5
 63
     7
421
 16777215
 74
     1
 91
        4
 64
     7
 65
   257
 75
     1
175
     1
 42
1.0
 92
        0
 66
   257
 43
1.0
 76
     1
 77
     6
 78
     2
 67
     7
 79
     5
170
     0
171
     0
290
     0
174
     0
 93
       13
 44
0.0
173
     0
291
     1
 45
0.0
  0
VISUALSTYLE
  5
2D
102
{ACAD_REACTORS
330
2A
102
}
102
{ACAD_XDICTIONARY
360
2E4
102
}
330
2A
100
AcDbVisualStyle
  2
Gouraud
 70
     2
 71
     2
 72
     2
 73
     1
 90
        2
 40
-0.6
 41
30.0
 62
     5
 63
     7
421
 16777215
 74
     0
 91
        4
 64
     7
 65
   257
 75
     1
175
     1
 42
1.0
 92
        0
 66
     7
 43
1.0
 76
     1
 77
     6
 78
     2
 67
     7
 79
     5
170
     0
171
     0
290
     0
174
     0
 93
       13
 44
0.0
173
     0
291
     1
 45
0.0
  0
VISUALSTYLE
  5
2E
102
{ACAD_REACTORS
330
2A
102
}
102
{ACAD_XDICTIONARY
360
2E6
102
}
330
2A
100
AcDbVisualStyle
  2
GouraudWithEdges
 70
     3
 71
     2
 72
     2
 73
     1
 90
        2
 40
-0.6
 41
30.0
 62
     5
 63
     7
421
 16777215
 74
     1
 91
        4
 64
     7
 65
   257
 75
     1
175
     1
 42
1.0
 92
        0
 66
   257
 43
1.0
 76
     1
 77
     6
 78
     2
 67
     7
 79
     5
170
     0
171
     0
290
     0
174
     0
 93
       13
 44
0.0
173
     0
291
     1
 45
0.0
  0
VISUALSTYLE
  5
38
102
{ACAD_REACTORS
330
2A
102
}
102
{ACAD_XDICTIONARY
360
2FA
102
}
330
2A
100
AcDbVisualStyle
  2
Linepattern
 70
    14
 71
     2
 72
     2
 73
     0
 90
        0
 40
-0.6
 41
-30.0
 62
     5
 63
     7
421
 16777215
 74
     1
 91
        4
 64
     7
 65
   257
 75
     7
175
     7
 42
1.0
 92
        8
 66
     7
 43
1.0
 76
     1
 77
     6
 78
     2
 67
     7
 79
     5
170
     0
171
     0
290
     0
174
     0
 93
        1
 44
0.0
173
     0
291
     1
 45
0.0
  0
VISUALSTYLE
  5
33
102
{ACAD_REACTORS
330
2A
102
}
102
{ACAD_XDICTIONARY
360
2F0
102
}
330
2A
100
AcDbVisualStyle
  2
Realistic
 70
     8
 71
     2
 72
     2
 73
     0
 90
        0
 40
-0.6
 41
-30.0
 62
     5
 63
     7
421
 16777215
 74
     1
 91
        0
 64
     7
 65
   257
 75
     1
175
     1
 42
1.0
 92
        8
 66
     8
424
  7895160
 43
1.0
 76
     1
 77
     6
 78
     2
 67
     7
 79
     5
170
     0
171
     0
290
     0
174
     0
 93
       13
 44
0.0
173
     0
291
     0
 45
0.0
  0
VISUALSTYLE
  5
37
102
{ACAD_REACTORS
330
2A
102
}
102
{ACAD_XDICTIONARY
360
2F8
102
}
330
2A
100
AcDbVisualStyle
  2
Thicken
 70
    13
 71
     2
 72
     2
 73
     0
 90
        0
 40
-0.6
 41
-30.0
 62
     5
 63
     7
421
 16777215
 74
     1
 91
        4
 64
     7
 65
   257
 75
     1
175
     1
 42
1.0
 92
       12
 66
     7
 43
1.0
 76
     1
 77
     6
 78
     2
 67
     7
 79
     5
170
     0
171
     0
290
     0
174
     0
 93
        1
 44
0.0
173
     0
291
     1
 45
0.0
  0
DICTIONARYVAR
  5
2DF
102
{ACAD_REACTORS
330
2DE
102
}
330
2DE
100
DictionaryVariables
280
     0
  1
1:1
  0
DICTIONARY
  5
2E8
330
2F
100
AcDbDictionary
280
     1
281
     1
  3
ACAD_XREC_ROUNDTRIP
360
2E9
  0
DICTIONARY
  5
2EC
330
31
100
AcDbDictionary
280
     1
281
     1
  3
ACAD_XREC_ROUNDTRIP
360
2ED
  0
DICTIONARY
  5
2EA
330
30
100
AcDbDictionary
280
     1
281
     1
  3
ACAD_XREC_ROUNDTRIP
360
2EB
  0
DICTIONARY
  5
2EE
330
32
100
AcDbDictionary
280
     1
281
     1
  3
ACAD_XREC_ROUNDTRIP
360
2EF
  0
DICTIONARY
  5
2F6
330
36
100
AcDbDictionary
280
     1
281
     1
  3
ACAD_XREC_ROUNDTRIP
360
2F7
  0
DICTIONARY
  5
2FE
330
3A
100
AcDbDictionary
280
     1
281
     1
  3
ACAD_XREC_ROUNDTRIP
360
2FF
  0
DICTIONARY
  5
2F2
330
34
100
AcDbDictionary
280
     1
281
     1
  3
ACAD_XREC_ROUNDTRIP
360
2F3
  0
DICTIONARY
  5
2F4
330
35
100
AcDbDictionary
280
     1
281
     1
  3
ACAD_XREC_ROUNDTRIP
360
2F5
  0
DICTIONARY
  5
2FC
330
39
100
AcDbDictionary
280
     1
281
     1
  3
ACAD_XREC_ROUNDTRIP
360
2FD
  0
DICTIONARY
  5
2E0
330
2B
100
AcDbDictionary
280
     1
281
     1
  3
ACAD_XREC_ROUNDTRIP
360
2E1
  0
DICTIONARY
  5
2E2
330
2C
100
AcDbDictionary
280
     1
281
     1
  3
ACAD_XREC_ROUNDTRIP
360
2E3
  0
DICTIONARY
  5
2E4
330
2D
100
AcDbDictionary
280
     1
281
     1
  3
ACAD_XREC_ROUNDTRIP
360
2E5
  0
DICTIONARY
  5
2E6
330
2E
100
AcDbDictionary
280
     1
281
     1
  3
ACAD_XREC_ROUNDTRIP
360
2E7
  0
DICTIONARY
  5
2FA
330
38
100
AcDbDictionary
280
     1
281
     1
  3
ACAD_XREC_ROUNDTRIP
360
2FB
  0
DICTIONARY
  5
2F0
330
33
100
AcDbDictionary
280
     1
281
     1
  3
ACAD_XREC_ROUNDTRIP
360
2F1
  0
DICTIONARY
  5
2F8
330
37
100
AcDbDictionary
280
     1
281
     1
  3
ACAD_XREC_ROUNDTRIP
360
2F9
  0
XRECORD
  5
2E9
102
{ACAD_REACTORS
330
2E8
102
}
330
2E8
100
AcDbXrecord
280
     1
102
RTVSPropertyOp0
 70
     1
102
RTVSPropertyOp1
 70
     1
102
RTVSPropertyOp2
 70
     1
102
RTVSPropertyOp3
 70
     1
102
RTVSPropertyOp4
 70
     1
102
RTVSPropertyOp5
 70
     1
102
RTVSPropertyOp6
 70
     1
102
RTVSPropertyOp7
 70
     1
102
RTVSPropertyOp8
 70
     1
102
RTVSPropertyOp9
 70
     1
102
RTVSPropertyOp10
 70
     1
102
RTVSPropertyOp11
 70
     1
102
RTVSPropertyOp12
 70
     1
102
RTVSPropertyOp13
 70
     1
102
RTVSPropertyOp14
 70
     1
102
RTVSPropertyOp15
 70
     1
102
RTVSPropertyOp16
 70
     1
102
RTVSPropertyOp17
 70
     1
102
RTVSPropertyOp18
 70
     1
102
RTVSPropertyOp19
 70
     1
102
RTVSPropertyOp20
 70
     1
102
RTVSPropertyOp21
 70
     1
102
RTVSPropertyOp22
 70
     1
102
RTVSPropertyOp23
 70
     1
102
RTVSPropertyOp24
 70
     1
102
RTVSPropertyOp25
 70
     1
102
RTVSPropertyOp26
 70
     1
102
RTVSPropertyOp27
 70
     1
  0
XRECORD
  5
2ED
102
{ACAD_REACTORS
330
2EC
102
}
330
2EC
100
AcDbXrecord
280
     1
102
RTVSPropertyOp0
 70
     1
102
RTVSPropertyOp1
 70
     1
102
RTVSPropertyOp2
 70
     1
102
RTVSPropertyOp3
 70
     1
102
RTVSPropertyOp4
 70
     1
102
RTVSPropertyOp5
 70
     1
102
RTVSPropertyOp6
 70
     1
102
RTVSPropertyOp7
 70
     1
102
RTVSPropertyOp8
 70
     1
102
RTVSPropertyOp9
 70
     1
102
RTVSPropertyOp10
 70
     1
102
RTVSPropertyOp11
 70
     1
102
RTVSPropertyOp12
 70
     1
102
RTVSPropertyOp13
 70
     1
102
RTVSPropertyOp14
 70
     1
102
RTVSPropertyOp15
 70
     1
102
RTVSPropertyOp16
 70
     1
102
RTVSPropertyOp17
 70
     1
102
RTVSPropertyOp18
 70
     1
102
RTVSPropertyOp19
 70
     1
102
RTVSPropertyOp20
 70
     1
102
RTVSPropertyOp21
 70
     1
102
RTVSPropertyOp22
 70
     1
102
RTVSPropertyOp23
 70
     1
102
RTVSPropertyOp24
 70
     1
102
RTVSPropertyOp25
 70
     1
102
RTVSPropertyOp26
 70
     1
102
RTVSPropertyOp27
 70
     1
  0
XRECORD
  5
2EB
102
{ACAD_REACTORS
330
2EA
102
}
330
2EA
100
AcDbXrecord
280
     1
102
RTVSPropertyOp0
 70
     1
102
RTVSPropertyOp1
 70
     1
102
RTVSPropertyOp2
 70
     1
102
RTVSPropertyOp3
 70
     1
102
RTVSPropertyOp4
 70
     1
102
RTVSPropertyOp5
 70
     1
102
RTVSPropertyOp6
 70
     1
102
RTVSPropertyOp7
 70
     1
102
RTVSPropertyOp8
 70
     1
102
RTVSPropertyOp9
 70
     1
102
RTVSPropertyOp10
 70
     1
102
RTVSPropertyOp11
 70
     1
102
RTVSPropertyOp12
 70
     1
102
RTVSPropertyOp13
 70
     1
102
RTVSPropertyOp14
 70
     1
102
RTVSPropertyOp15
 70
     1
102
RTVSPropertyOp16
 70
     1
102
RTVSPropertyOp17
 70
     1
102
RTVSPropertyOp18
 70
     1
102
RTVSPropertyOp19
 70
     1
102
RTVSPropertyOp20
 70
     1
102
RTVSPropertyOp21
 70
     1
102
RTVSPropertyOp22
 70
     1
102
RTVSPropertyOp23
 70
     1
102
RTVSPropertyOp24
 70
     1
102
RTVSPropertyOp25
 70
     1
102
RTVSPropertyOp26
 70
     1
102
RTVSPropertyOp27
 70
     1
  0
XRECORD
  5
2EF
102
{ACAD_REACTORS
330
2EE
102
}
330
2EE
100
AcDbXrecord
280
     1
102
RTVSPropertyOp0
 70
     1
102
RTVSPropertyOp1
 70
     1
102
RTVSPropertyOp2
 70
     1
102
RTVSPropertyOp3
 70
     1
102
RTVSPropertyOp4
 70
     1
102
RTVSPropertyOp5
 70
     1
102
RTVSPropertyOp6
 70
     1
102
RTVSPropertyOp7
 70
     1
102
RTVSPropertyOp8
 70
     1
102
RTVSPropertyOp9
 70
     1
102
RTVSPropertyOp10
 70
     1
102
RTVSPropertyOp11
 70
     1
102
RTVSPropertyOp12
 70
     1
102
RTVSPropertyOp13
 70
     1
102
RTVSPropertyOp14
 70
     1
102
RTVSPropertyOp15
 70
     1
102
RTVSPropertyOp16
 70
     1
102
RTVSPropertyOp17
 70
     1
102
RTVSPropertyOp18
 70
     1
102
RTVSPropertyOp19
 70
     1
102
RTVSPropertyOp20
 70
     1
102
RTVSPropertyOp21
 70
     1
102
RTVSPropertyOp22
 70
     1
102
RTVSPropertyOp23
 70
     1
102
RTVSPropertyOp24
 70
     1
102
RTVSPropertyOp25
 70
     1
102
RTVSPropertyOp26
 70
     1
102
RTVSPropertyOp27
 70
     1
  0
XRECORD
  5
2F7
102
{ACAD_REACTORS
330
2F6
102
}
330
2F6
100
AcDbXrecord
280
     1
102
RTVSPropertyOp0
 70
     1
102
RTVSPropertyOp1
 70
     1
102
RTVSPropertyOp2
 70
     1
102
RTVSPropertyOp3
 70
     1
102
RTVSPropertyOp4
 70
     1
102
RTVSPropertyOp5
 70
     1
102
RTVSPropertyOp6
 70
     1
102
RTVSPropertyOp7
 70
     1
102
RTVSPropertyOp8
 70
     1
102
RTVSPropertyOp9
 70
     1
102
RTVSPropertyOp10
 70
     1
102
RTVSPropertyOp11
 70
     1
102
RTVSPropertyOp12
 70
     1
102
RTVSPropertyOp13
 70
     1
102
RTVSPropertyOp14
 70
     1
102
RTVSPropertyOp15
 70
     1
102
RTVSPropertyOp16
 70
     1
102
RTVSPropertyOp17
 70
     1
102
RTVSPropertyOp18
 70
     1
102
RTVSPropertyOp19
 70
     1
102
RTVSPropertyOp20
 70
     1
102
RTVSPropertyOp21
 70
     1
102
RTVSPropertyOp22
 70
     1
102
RTVSPropertyOp23
 70
     1
102
RTVSPropertyOp24
 70
     1
102
RTVSPropertyOp25
 70
     1
102
RTVSPropertyOp26
 70
     1
102
RTVSPropertyOp27
 70
     1
  0
XRECORD
  5
2FF
102
{ACAD_REACTORS
330
2FE
102
}
330
2FE
100
AcDbXrecord
280
     1
102
RTVSPropertyOp0
 70
     1
102
RTVSPropertyOp1
 70
     1
102
RTVSPropertyOp2
 70
     1
102
RTVSPropertyOp3
 70
     1
102
RTVSPropertyOp4
 70
     1
102
RTVSPropertyOp5
 70
     1
102
RTVSPropertyOp6
 70
     1
102
RTVSPropertyOp7
 70
     1
102
RTVSPropertyOp8
 70
     1
102
RTVSPropertyOp9
 70
     1
102
RTVSPropertyOp10
 70
     1
102
RTVSPropertyOp11
 70
     1
102
RTVSPropertyOp12
 70
     1
102
RTVSPropertyOp13
 70
     1
102
RTVSPropertyOp14
 70
     1
102
RTVSPropertyOp15
 70
     1
102
RTVSPropertyOp16
 70
     1
102
RTVSPropertyOp17
 70
     1
102
RTVSPropertyOp18
 70
     1
102
RTVSPropertyOp19
 70
     1
102
RTVSPropertyOp20
 70
     1
102
RTVSPropertyOp21
 70
     1
102
RTVSPropertyOp22
 70
     1
102
RTVSPropertyOp23
 70
     1
102
RTVSPropertyOp24
 70
     1
102
RTVSPropertyOp25
 70
     1
102
RTVSPropertyOp26
 70
     1
102
RTVSPropertyOp27
 70
     1
  0
XRECORD
  5
2F3
102
{ACAD_REACTORS
330
2F2
102
}
330
2F2
100
AcDbXrecord
280
     1
102
RTVSPropertyOp0
 70
     1
102
RTVSPropertyOp1
 70
     1
102
RTVSPropertyOp2
 70
     1
102
RTVSPropertyOp3
 70
     1
102
RTVSPropertyOp4
 70
     1
102
RTVSPropertyOp5
 70
     1
102
RTVSPropertyOp6
 70
     1
102
RTVSPropertyOp7
 70
     1
102
RTVSPropertyOp8
 70
     1
102
RTVSPropertyOp9
 70
     1
102
RTVSPropertyOp10
 70
     1
102
RTVSPropertyOp11
 70
     1
102
RTVSPropertyOp12
 70
     1
102
RTVSPropertyOp13
 70
     1
102
RTVSPropertyOp14
 70
     1
102
RTVSPropertyOp15
 70
     1
102
RTVSPropertyOp16
 70
     1
102
RTVSPropertyOp17
 70
     1
102
RTVSPropertyOp18
 70
     1
102
RTVSPropertyOp19
 70
     1
102
RTVSPropertyOp20
 70
     1
102
RTVSPropertyOp21
 70
     1
102
RTVSPropertyOp22
 70
     1
102
RTVSPropertyOp23
 70
     1
102
RTVSPropertyOp24
 70
     1
102
RTVSPropertyOp25
 70
     1
102
RTVSPropertyOp26
 70
     1
102
RTVSPropertyOp27
 70
     1
  0
XRECORD
  5
2F5
102
{ACAD_REACTORS
330
2F4
102
}
330
2F4
100
AcDbXrecord
280
     1
102
RTVSPropertyOp0
 70
     1
102
RTVSPropertyOp1
 70
     1
102
RTVSPropertyOp2
 70
     1
102
RTVSPropertyOp3
 70
     1
102
RTVSPropertyOp4
 70
     1
102
RTVSPropertyOp5
 70
     1
102
RTVSPropertyOp6
 70
     1
102
RTVSPropertyOp7
 70
     1
102
RTVSPropertyOp8
 70
     1
102
RTVSPropertyOp9
 70
     1
102
RTVSPropertyOp10
 70
     1
102
RTVSPropertyOp11
 70
     1
102
RTVSPropertyOp12
 70
     1
102
RTVSPropertyOp13
 70
     1
102
RTVSPropertyOp14
 70
     1
102
RTVSPropertyOp15
 70
     1
102
RTVSPropertyOp16
 70
     1
102
RTVSPropertyOp17
 70
     1
102
RTVSPropertyOp18
 70
     1
102
RTVSPropertyOp19
 70
     1
102
RTVSPropertyOp20
 70
     1
102
RTVSPropertyOp21
 70
     1
102
RTVSPropertyOp22
 70
     1
102
RTVSPropertyOp23
 70
     1
102
RTVSPropertyOp24
 70
     1
102
RTVSPropertyOp25
 70
     1
102
RTVSPropertyOp26
 70
     1
102
RTVSPropertyOp27
 70
     1
  0
XRECORD
  5
2FD
102
{ACAD_REACTORS
330
2FC
102
}
330
2FC
100
AcDbXrecord
280
     1
102
RTVSPropertyOp0
 70
     1
102
RTVSPropertyOp1
 70
     1
102
RTVSPropertyOp2
 70
     1
102
RTVSPropertyOp3
 70
     1
102
RTVSPropertyOp4
 70
     1
102
RTVSPropertyOp5
 70
     1
102
RTVSPropertyOp6
 70
     1
102
RTVSPropertyOp7
 70
     1
102
RTVSPropertyOp8
 70
     1
102
RTVSPropertyOp9
 70
     1
102
RTVSPropertyOp10
 70
     1
102
RTVSPropertyOp11
 70
     1
102
RTVSPropertyOp12
 70
     1
102
RTVSPropertyOp13
 70
     1
102
RTVSPropertyOp14
 70
     1
102
RTVSPropertyOp15
 70
     1
102
RTVSPropertyOp16
 70
     1
102
RTVSPropertyOp17
 70
     1
102
RTVSPropertyOp18
 70
     1
102
RTVSPropertyOp19
 70
     1
102
RTVSPropertyOp20
 70
     1
102
RTVSPropertyOp21
 70
     1
102
RTVSPropertyOp22
 70
     1
102
RTVSPropertyOp23
 70
     1
102
RTVSPropertyOp24
 70
     1
102
RTVSPropertyOp25
 70
     1
102
RTVSPropertyOp26
 70
     1
102
RTVSPropertyOp27
 70
     1
  0
XRECORD
  5
2E1
102
{ACAD_REACTORS
330
2E0
102
}
330
2E0
100
AcDbXrecord
280
     1
102
RTVSPropertyOp0
 70
     1
102
RTVSPropertyOp1
 70
     1
102
RTVSPropertyOp2
 70
     1
102
RTVSPropertyOp3
 70
     1
102
RTVSPropertyOp4
 70
     1
102
RTVSPropertyOp5
 70
     1
102
RTVSPropertyOp6
 70
     1
102
RTVSPropertyOp7
 70
     1
102
RTVSPropertyOp8
 70
     1
102
RTVSPropertyOp9
 70
     1
102
RTVSPropertyOp10
 70
     1
102
RTVSPropertyOp11
 70
     1
102
RTVSPropertyOp12
 70
     1
102
RTVSPropertyOp13
 70
     1
102
RTVSPropertyOp14
 70
     1
102
RTVSPropertyOp15
 70
     1
102
RTVSPropertyOp16
 70
     1
102
RTVSPropertyOp17
 70
     1
102
RTVSPropertyOp18
 70
     1
102
RTVSPropertyOp19
 70
     1
102
RTVSPropertyOp20
 70
     1
102
RTVSPropertyOp21
 70
     1
102
RTVSPropertyOp22
 70
     1
102
RTVSPropertyOp23
 70
     1
102
RTVSPropertyOp24
 70
     1
102
RTVSPropertyOp25
 70
     1
102
RTVSPropertyOp26
 70
     1
102
RTVSPropertyOp27
 70
     1
  0
XRECORD
  5
2E3
102
{ACAD_REACTORS
330
2E2
102
}
330
2E2
100
AcDbXrecord
280
     1
102
RTVSPropertyOp0
 70
     1
102
RTVSPropertyOp1
 70
     1
102
RTVSPropertyOp2
 70
     1
102
RTVSPropertyOp3
 70
     1
102
RTVSPropertyOp4
 70
     1
102
RTVSPropertyOp5
 70
     1
102
RTVSPropertyOp6
 70
     1
102
RTVSPropertyOp7
 70
     1
102
RTVSPropertyOp8
 70
     1
102
RTVSPropertyOp9
 70
     1
102
RTVSPropertyOp10
 70
     1
102
RTVSPropertyOp11
 70
     1
102
RTVSPropertyOp12
 70
     1
102
RTVSPropertyOp13
 70
     1
102
RTVSPropertyOp14
 70
     1
102
RTVSPropertyOp15
 70
     1
102
RTVSPropertyOp16
 70
     1
102
RTVSPropertyOp17
 70
     1
102
RTVSPropertyOp18
 70
     1
102
RTVSPropertyOp19
 70
     1
102
RTVSPropertyOp20
 70
     1
102
RTVSPropertyOp21
 70
     1
102
RTVSPropertyOp22
 70
     1
102
RTVSPropertyOp23
 70
     1
102
RTVSPropertyOp24
 70
     1
102
RTVSPropertyOp25
 70
     1
102
RTVSPropertyOp26
 70
     1
102
RTVSPropertyOp27
 70
     1
  0
XRECORD
  5
2E5
102
{ACAD_REACTORS
330
2E4
102
}
330
2E4
100
AcDbXrecord
280
     1
102
RTVSPropertyOp0
 70
     1
102
RTVSPropertyOp1
 70
     1
102
RTVSPropertyOp2
 70
     1
102
RTVSPropertyOp3
 70
     1
102
RTVSPropertyOp4
 70
     1
102
RTVSPropertyOp5
 70
     1
102
RTVSPropertyOp6
 70
     1
102
RTVSPropertyOp7
 70
     1
102
RTVSPropertyOp8
 70
     1
102
RTVSPropertyOp9
 70
     1
102
RTVSPropertyOp10
 70
     1
102
RTVSPropertyOp11
 70
     1
102
RTVSPropertyOp12
 70
     1
102
RTVSPropertyOp13
 70
     1
102
RTVSPropertyOp14
 70
     1
102
RTVSPropertyOp15
 70
     1
102
RTVSPropertyOp16
 70
     1
102
RTVSPropertyOp17
 70
     1
102
RTVSPropertyOp18
 70
     1
102
RTVSPropertyOp19
 70
     1
102
RTVSPropertyOp20
 70
     1
102
RTVSPropertyOp21
 70
     1
102
RTVSPropertyOp22
 70
     1
102
RTVSPropertyOp23
 70
     1
102
RTVSPropertyOp24
 70
     1
102
RTVSPropertyOp25
 70
     1
102
RTVSPropertyOp26
 70
     1
102
RTVSPropertyOp27
 70
     1
  0
XRECORD
  5
2E7
102
{ACAD_REACTORS
330
2E6
102
}
330
2E6
100
AcDbXrecord
280
     1
102
RTVSPropertyOp0
 70
     1
102
RTVSPropertyOp1
 70
     1
102
RTVSPropertyOp2
 70
     1
102
RTVSPropertyOp3
 70
     1
102
RTVSPropertyOp4
 70
     1
102
RTVSPropertyOp5
 70
     1
102
RTVSPropertyOp6
 70
     1
102
RTVSPropertyOp7
 70
     1
102
RTVSPropertyOp8
 70
     1
102
RTVSPropertyOp9
 70
     1
102
RTVSPropertyOp10
 70
     1
102
RTVSPropertyOp11
 70
     1
102
RTVSPropertyOp12
 70
     1
102
RTVSPropertyOp13
 70
     1
102
RTVSPropertyOp14
 70
     1
102
RTVSPropertyOp15
 70
     1
102
RTVSPropertyOp16
 70
     1
102
RTVSPropertyOp17
 70
     1
102
RTVSPropertyOp18
 70
     1
102
RTVSPropertyOp19
 70
     1
102
RTVSPropertyOp20
 70
     1
102
RTVSPropertyOp21
 70
     1
102
RTVSPropertyOp22
 70
     1
102
RTVSPropertyOp23
 70
     1
102
RTVSPropertyOp24
 70
     1
102
RTVSPropertyOp25
 70
     1
102
RTVSPropertyOp26
 70
     1
102
RTVSPropertyOp27
 70
     1
  0
XRECORD
  5
2FB
102
{ACAD_REACTORS
330
2FA
102
}
330
2FA
100
AcDbXrecord
280
     1
102
RTVSPropertyOp0
 70
     1
102
RTVSPropertyOp1
 70
     1
102
RTVSPropertyOp2
 70
     1
102
RTVSPropertyOp3
 70
     1
102
RTVSPropertyOp4
 70
     1
102
RTVSPropertyOp5
 70
     1
102
RTVSPropertyOp6
 70
     1
102
RTVSPropertyOp7
 70
     1
102
RTVSPropertyOp8
 70
     1
102
RTVSPropertyOp9
 70
     1
102
RTVSPropertyOp10
 70
     1
102
RTVSPropertyOp11
 70
     1
102
RTVSPropertyOp12
 70
     1
102
RTVSPropertyOp13
 70
     1
102
RTVSPropertyOp14
 70
     1
102
RTVSPropertyOp15
 70
     1
102
RTVSPropertyOp16
 70
     1
102
RTVSPropertyOp17
 70
     1
102
RTVSPropertyOp18
 70
     1
102
RTVSPropertyOp19
 70
     1
102
RTVSPropertyOp20
 70
     1
102
RTVSPropertyOp21
 70
     1
102
RTVSPropertyOp22
 70
     1
102
RTVSPropertyOp23
 70
     1
102
RTVSPropertyOp24
 70
     1
102
RTVSPropertyOp25
 70
     1
102
RTVSPropertyOp26
 70
     1
102
RTVSPropertyOp27
 70
     1
  0
XRECORD
  5
2F1
102
{ACAD_REACTORS
330
2F0
102
}
330
2F0
100
AcDbXrecord
280
     1
102
RTVSPropertyOp0
 70
     1
102
RTVSPropertyOp1
 70
     1
102
RTVSPropertyOp2
 70
     1
102
RTVSPropertyOp3
 70
     1
102
RTVSPropertyOp4
 70
     1
102
RTVSPropertyOp5
 70
     1
102
RTVSPropertyOp6
 70
     1
102
RTVSPropertyOp7
 70
     1
102
RTVSPropertyOp8
 70
     1
102
RTVSPropertyOp9
 70
     1
102
RTVSPropertyOp10
 70
     1
102
RTVSPropertyOp11
 70
     1
102
RTVSPropertyOp12
 70
     1
102
RTVSPropertyOp13
 70
     1
102
RTVSPropertyOp14
 70
     1
102
RTVSPropertyOp15
 70
     1
102
RTVSPropertyOp16
 70
     1
102
RTVSPropertyOp17
 70
     1
102
RTVSPropertyOp18
 70
     1
102
RTVSPropertyOp19
 70
     1
102
RTVSPropertyOp20
 70
     1
102
RTVSPropertyOp21
 70
     1
102
RTVSPropertyOp22
 70
     1
102
RTVSPropertyOp23
 70
     1
102
RTVSPropertyOp24
 70
     1
102
RTVSPropertyOp25
 70
     1
102
RTVSPropertyOp26
 70
     1
102
RTVSPropertyOp27
 70
     1
  0
XRECORD
  5
2F9
102
{ACAD_REACTORS
330
2F8
102
}
330
2F8
100
AcDbXrecord
280
     1
102
RTVSPropertyOp0
 70
     1
102
RTVSPropertyOp1
 70
     1
102
RTVSPropertyOp2
 70
     1
102
RTVSPropertyOp3
 70
     1
102
RTVSPropertyOp4
 70
     1
102
RTVSPropertyOp5
 70
     1
102
RTVSPropertyOp6
 70
     1
102
RTVSPropertyOp7
 70
     1
102
RTVSPropertyOp8
 70
     1
102
RTVSPropertyOp9
 70
     1
102
RTVSPropertyOp10
 70
     1
102
RTVSPropertyOp11
 70
     1
102
RTVSPropertyOp12
 70
     1
102
RTVSPropertyOp13
 70
     1
102
RTVSPropertyOp14
 70
     1
102
RTVSPropertyOp15
 70
     1
102
RTVSPropertyOp16
 70
     1
102
RTVSPropertyOp17
 70
     1
102
RTVSPropertyOp18
 70
     1
102
RTVSPropertyOp19
 70
     1
102
RTVSPropertyOp20
 70
     1
102
RTVSPropertyOp21
 70
     1
102
RTVSPropertyOp22
 70
     1
102
RTVSPropertyOp23
 70
     1
102
RTVSPropertyOp24
 70
     1
102
RTVSPropertyOp25
 70
     1
102
RTVSPropertyOp26
 70
     1
102
RTVSPropertyOp27
 70
     1
  0
ENDSEC
  0
EOF
